Мистер Крутой / Mr. Nice Guy / Yat goh ho yan (1997) WEB-DL 1080р | P, P2, A

 
Author Message

Swager ®

Gender:

Longevity: 3 years 11 months

Posts: 2126



: 4 ()

За внесенный вклад в развитие сайта (1) Top Releaser 2 (1) Mega Seeder 1 (1)
Торрент-статистика

Post 28-Oct-2017 12:17

[Quote]

Информация о фильме
Название: Мистер Крутой
Оригинальное название: Mr. Nice Guy / Yat goh ho yan
Год выхода: 1997
Жанр: боевик, комедия, криминал
Режиссер: Саммо Хун
В ролях: Джеки Чан, Ричард Нортон, Мики Ли, Карен МакЛаймонт, Гэбриэлль Фицпатрик, Винс Полетто, Бэрри Отто, Саммо Хун, Эмиль Чау, Джойс Годензи
О фильме:
Ведущий кулинарного телешоу в Мельбурне Джеки случайно становится обладателем видеокассеты с записью кровавой разборки между бандами наркоторговцев. На этом спокойные дни для Джеки закончились и превратились в бесконечную гонку на выживание. Он бы с удовольствием отдал кассету бандитам или полиции, ведь на ней улика. Но те не задавали вопросов, а у Джеки все равно не было ответов. Зато было тренированное тело и молниеносные кулаки.

Страна: Гонконг
Студия: Golden Harvest Company Ltd.
Продолжительность: 01:28:18
Перевод: Профессиональный (многоголосый, закадровый) R5/Мосфильм + Профессиональный (многоголосый, закадровый) ТНТ + Профессиональный (многоголосый, закадровый) ОРТ + Профессиональный (двухголосый, закадровый) HTB + Профессиональный (двухголосый, закадровый) GarsuPasaulis + Авторский (одноголосый, закадровый) А.Гаврилов + Авторский (одноголосый, закадровый) Ю.Живов
Релиз: | maksnew
Файл
Качество: WEB-DL 1080р
Формат: Matroska
Видео: 1912x788 at 23.976 fps, MPEG-4 AVC, ~4470 kbps avg
Аудио#1: Russian: 48 kHz, AC3, 3/2 (L,C,R,l,r) + LFE ch, ~384 kbps avg |Многоголосый закадровый, R5/Мосфильм|
Аудио#2: Russian: 48 kHz, AC3, 2/0 (L,R) ch, ~224 kbps avg |Многоголосый закадровый, ТНТ|
Аудио#3: Russian: 48 kHz, AC3, 2/0 (L,R) ch, ~224 kbps avg |Многоголосый закадровый, ОРТ|
Аудио#4: Russian: 48 kHz, AC3, 2/0 (L,R) ch, ~224 kbps avg |Двухголосый закадровый, HTB|
Аудио#5: Russian: 48 kHz, AC3, 2/0 (L,R) ch, ~256 kbps avg |Двухголосый закадровый, GarsuPasaulis|
Аудио#6: Russian: 48 kHz, AC3, 3/2 (L,C,R,l,r) + LFE ch, ~384 kbps avg |Авторский, А.Гаврилов|
Аудио#7: Russian: 48 kHz, AC3, 3/2 (L,C,R,l,r) + LFE ch, ~384 kbps avg |Авторский, Ю.Живов|
Аудио#8: English: 48 kHz, AC3, 3/2 (L,C,R,l,r) + LFE ch, ~384 kbps avg
Субтитры: Russian, English
***Сохранены и подписаны оригинальные главы.

Знаете ли вы, что...

Из-за беспорядка, оставленного после себя при разрушении дома Джанкарло, компании-производителю было надолго запрещено снимать что-либо в этой части Австралии.
Женщина, которая была сброшена Ричардом Нортоном в яму с углем в начале фильма в реальной жизни является его женой.
Первая женщина, которую Джеки накормил омлетом в сцене готовки еды в торговом центре — это жена Саммо — Мина Хунг (Mina Hung).
Дом Джанкарло был построен специально для фильма. Его стоимость составила 1,5 миллиона американских долларов.
Первоначально предполагалось, что фильм будут снимать в Нью-Йорке. Но в итоге оказалось, что съемки в Мельбурне (Австралия) более экономичны.
Лучший друг Джеки Чана актер и певец Эмиль Чау появился здесь в эпизодической роли продавца мороженного. Это уже второй раз, когда он играет подобного персонажа. Первый раз был в фильме «Разборка в Бронксе» (1995).
В съемках принимала участие каскадерская команда New Generation Stunts («Каскадеры нового поколения»). Именно в этой группе каскадеров начинал работать Брэд Аллан, и именно через них он начал работать с Джеки, хотя в то время уже не входил в New Generation Stunts.
Автомобиль, которым управляет Джеки, Мустанг (Mustang) 1967 года выпуска, обладает возможностью менять положение руля с левостороннего на правостороннее.
Грузовик, который мы видим в конце фильма, называется Haulpaks. Их используют для работы в карьерах и разрезах. Одно из колес этого огромного грузовика вставлено в забор офиса Джеки Чана в Гонконге. Центральная часть выполнена таким образом, что панель, находящуюся там, можно менять. Меняя панели, работники офиса поздравляют прохожих с различными праздниками и событиями. В обычные дни в колесо вставлена меняющая цвет панель с логотипом Джеки Чана.
Режиссер Саммо Хунг также появился в эпизодической роли. Он сыграл любопытного велосипедиста.
Когда в самом начале происходит потасовка между бандой Демонов и группировкой Джанкарло на заброшенном складе, это фиксируют на плёнку журналисты, сидящие в укрытии на втором этаже. Позднее друг Джеки, работающий в полиции, будет просматривать ту кассету, которую засняли журналисты, однако вид там будет точно такой же, какой показывали, то есть от третьего лица, а совсем не то, что должны были заснять репортёры. На кассете даже будет запечатлен взрыв, который рассекретил убежище злосчастных журналистов, и тоже от третьего лица.
В концовке фильма, а точнее в сцене, где Джеки пытается взобраться на грузовик, заметно, что его волосы длиннее, чем во всех других сценах, поскольку этот эпизод был первым из тех, что отсняли.

MediaInfo

Общее
Уникальный идентификатор : 239766270196966764799777574637305103420 (0xB4614DCF2F49B643B07DA179C788843C)
Полное имя : Mr. Nice Guy (1996) WEB-DL 1080p -BLUEBIRD.mkv
Формат : Matroska
Версия формата : Version 4 / Version 2
Размер файла : 4,36 Гбайт
Продолжительность : 1 ч. 28 м.
Общий поток : 7075 Кбит/сек
Дата кодирования : UTC 2016-06-24 18:25:11
Программа кодирования : mkvmerge v6.9.1 ('Blue Panther') 64bit built on Apr 18 2014 18:23:38
Библиотека кодирования : libebml v1.3.0 + libmatroska v1.4.1
Видео
Идентификатор : 1
Формат : AVC
Формат/Информация : Advanced Video Codec
Профиль формата : High@L4.0
Параметр CABAC формата : Да
Параметр ReFrames формата : 5 кадров
Идентификатор кодека : V_MPEG4/ISO/AVC
Продолжительность : 1 ч. 28 м.
Битрейт : 4470 Кбит/сек
Ширина : 1912 пикселей
Высота : 788 пикселей
Соотношение сторон : 2,40:1
Режим частоты кадров : Постоянный
Частота кадров : 23,976 кадра/сек
Цветовое пространство : YUV
Субдискретизация насыщенности : 4:2:0
Битовая глубина : 8 бит
Тип развёртки : Прогрессивная
Бит/(Пиксели*Кадры) : 0.124
Размер потока : 2,76 Гбайт (63%)
Язык : English
Default : Да
Forced : Нет
Основные цвета : BT.709
Характеристики трансфера : BT.709
Коэффициенты матрицы : BT.709
Аудио #1
Идентификатор : 2
Формат : AC-3
Формат/Информация : Audio Coding 3
Расширение режима : CM (complete main)
Параметр Endianness формата : Big
Идентификатор кодека : A_AC3
Продолжительность : 1 ч. 28 м.
Вид битрейта : Постоянный
Битрейт : 384 Кбит/сек
Каналы : 6 каналов
Расположение каналов : Front: L C R, Side: L R, LFE
Частота : 48,0 КГц
Битовая глубина : 16 бит
Метод сжатия : С потерями
Размер потока : 243 Мбайт (5%)
Заголовок : R5-Мосфильм
Язык : Russian
Default : Да
Forced : Нет
Аудио #2
Идентификатор : 3
Формат : AC-3
Формат/Информация : Audio Coding 3
Расширение режима : CM (complete main)
Параметр Endianness формата : Big
Идентификатор кодека : A_AC3
Продолжительность : 1 ч. 28 м.
Вид битрейта : Постоянный
Битрейт : 224 Кбит/сек
Каналы : 2 канала
Расположение каналов : Front: L R
Частота : 48,0 КГц
Битовая глубина : 16 бит
Метод сжатия : С потерями
Размер потока : 141 Мбайт (3%)
Заголовок : ТНТ
Язык : Russian
Default : Нет
Forced : Нет
Аудио #3
Идентификатор : 4
Формат : AC-3
Формат/Информация : Audio Coding 3
Расширение режима : CM (complete main)
Параметр Endianness формата : Big
Идентификатор кодека : A_AC3
Продолжительность : 1 ч. 28 м.
Вид битрейта : Постоянный
Битрейт : 224 Кбит/сек
Каналы : 2 канала
Расположение каналов : Front: L R
Частота : 48,0 КГц
Битовая глубина : 16 бит
Метод сжатия : С потерями
Размер потока : 141 Мбайт (3%)
Заголовок : ОРТ
Язык : Russian
Default : Нет
Forced : Нет
Аудио #4
Идентификатор : 5
Формат : AC-3
Формат/Информация : Audio Coding 3
Расширение режима : CM (complete main)
Параметр Endianness формата : Big
Идентификатор кодека : A_AC3
Продолжительность : 1 ч. 28 м.
Вид битрейта : Постоянный
Битрейт : 224 Кбит/сек
Каналы : 2 канала
Расположение каналов : Front: L R
Частота : 48,0 КГц
Битовая глубина : 16 бит
Метод сжатия : С потерями
Размер потока : 141 Мбайт (3%)
Заголовок : НТВ
Язык : Russian
Default : Нет
Forced : Нет
Аудио #5
Идентификатор : 6
Формат : AC-3
Формат/Информация : Audio Coding 3
Расширение режима : CM (complete main)
Параметр Endianness формата : Big
Идентификатор кодека : A_AC3
Продолжительность : 1 ч. 28 м.
Вид битрейта : Постоянный
Битрейт : 256 Кбит/сек
Каналы : 2 канала
Расположение каналов : Front: L R
Частота : 48,0 КГц
Битовая глубина : 16 бит
Метод сжатия : С потерями
Размер потока : 162 Мбайт (4%)
Заголовок : GarsuPasaulis
Язык : Russian
Default : Нет
Forced : Нет
Аудио #6
Идентификатор : 7
Формат : AC-3
Формат/Информация : Audio Coding 3
Расширение режима : CM (complete main)
Параметр Endianness формата : Big
Идентификатор кодека : A_AC3
Продолжительность : 1 ч. 28 м.
Вид битрейта : Постоянный
Битрейт : 384 Кбит/сек
Каналы : 6 каналов
Расположение каналов : Front: L C R, Side: L R, LFE
Частота : 48,0 КГц
Битовая глубина : 16 бит
Метод сжатия : С потерями
Размер потока : 243 Мбайт (5%)
Заголовок : А.Гаврилов
Язык : Russian
Default : Нет
Forced : Нет
Аудио #7
Идентификатор : 8
Формат : AC-3
Формат/Информация : Audio Coding 3
Расширение режима : CM (complete main)
Параметр Endianness формата : Big
Идентификатор кодека : A_AC3
Продолжительность : 1 ч. 28 м.
Вид битрейта : Постоянный
Битрейт : 384 Кбит/сек
Каналы : 6 каналов
Расположение каналов : Front: L C R, Side: L R, LFE
Частота : 48,0 КГц
Битовая глубина : 16 бит
Метод сжатия : С потерями
Размер потока : 243 Мбайт (5%)
Заголовок : Ю.Живов
Язык : Russian
Default : Нет
Forced : Нет
Аудио #8
Идентификатор : 9
Формат : AC-3
Формат/Информация : Audio Coding 3
Расширение режима : CM (complete main)
Параметр Endianness формата : Big
Идентификатор кодека : A_AC3
Продолжительность : 1 ч. 28 м.
Вид битрейта : Постоянный
Битрейт : 384 Кбит/сек
Каналы : 6 каналов
Расположение каналов : Front: L C R, Side: L R, LFE
Частота : 48,0 КГц
Битовая глубина : 16 бит
Метод сжатия : С потерями
Размер потока : 243 Мбайт (5%)
Язык : English
Default : Нет
Forced : Нет
Текст #1
Идентификатор : 10
Формат : UTF-8
Идентификатор кодека : S_TEXT/UTF8
Идентификатор кодека/Информация : UTF-8 Plain Text
Язык : Russian
Default : Нет
Forced : Нет
Текст #2
Идентификатор : 11
Формат : UTF-8
Идентификатор кодека : S_TEXT/UTF8
Идентификатор кодека/Информация : UTF-8 Plain Text
Язык : English
Default : Нет
Forced : Нет
Меню
00:00:00.000 : en:Main Title/Chef Jackie
00:03:09.000 : en:Dealing with the Demons
00:11:39.000 : en:Wedding Party
00:19:56.000 : en:Miki
00:31:42.000 : en:"I've Got to Have that Tape"
00:37:24.000 : en:Giancarlo's Orders
00:43:16.000 : en:The Exchange
00:49:42.000 : en:"Somebody Need Help?"
00:55:15.000 : en:Construction Site
01:03:33.000 : en:Unleashed
01:19:36.000 : en:Outtakes
01:23:40.000 : en:End Credits

Скриншоты

[Profile] [PM]
Кто просматривает тему:

Forum Topic Author Size
Rock (Рок, Хард-рок, Альтернатива) Мистер Гро... - Парк чудес - 2016, MP3, 320 kbps достали все 87 MB
Отечественные мультфильмы Mister Пронька (мистер Пронька) (Леонид Носырев) [1991, Рисованный мультфильм, WEB-DLRip] TorrentFilm 221 MB
Фильмы (HD DVD, Blu-ray и BDRemux) Бог знает, мистер Аллисон / Heaven Knows, Mr. Allison (1957) BDRemux [1080p] Guest 28.39 GB
Зарубежные сериалы Джонатан Стрендж и мистер Норрелл / Jonathan Strange And Mr Norrell [S01] (2015) HDRip | LostFilm достали все 6.07 GB
Боевики, детективы, триллеры Кинг Стивен – Мистер Мерседес [Князев Игорь, 2014 г., 128 kbps, MP3] sergej644 999 MB
Мировая классика Марк Леви - Странное путешествие мистера Долдри (2015) MP3 Swager 370 MB
Фильмы 2009 года Мистер - Мама Отряда / Mr. Troop Mom (2009) HDRip | L1 BOSS 1.46 GB
Фильмы 2011 года Мистер Бин на отдыхе / Mr. Bean\'s Holiday (Стив Бенделак / Steve Bendelack) [2007, Великобритания, Франция, Германия, Комедия, семейный, BDRip] DVO (Universal Channel) + DVO (ТРК Украина) reversefile 1.46 GB
Display posts from previous:    

The time now is: Today 19:49

All times are GMT



You cannot post new topics in this forum
You cannot reply to topics in this forum
You cannot edit your posts in this forum
You cannot delete your posts in this forum
You cannot vote in polls in this forum
You cannot attach files in this forum
You cannot download files in this forum