Мистер Гоу / Mi-seu-teo Go / Mr. Go (2013) BDRip 1080p от Ash61 | 3D-Video | halfOU | L1

 
Автор Сообщение

sergej644 ®

Пол:

Стаж: 4 года 11 месяцев

Сообщений: 6046

Откуда: Soviet Union



Награды: Нет

Торрент-статистика

Создавать темы 23-Янв-2015 20:46

[Цитировать]

Мистер Гоу
Mi-seu-teo Go
Mr. Go
- Год выпуска: 2013
Страна: Южная Корея (Huayi Brothers, ShowBox, Dexter Films)
Жанр: Драма, Комедия
Продолжительность: 2:12:55
Перевод: Любительский одноголосый закадровый - PashaUp (по субтитрам S.V.O.)
Режиссер: Ким Ён-хва / Kim Yong-hwa-Роли исполняли: Цзяо Сюй (Weiwei), Сон Дон Иль (Sung Chung-su), Ким Хи Вон (Lin Xiaogang), Ким Кан У, Дзё Одагири (The Owner of Chunichi Dragons), Чон Ин Ги (Mr. Secretary), Jae-yun Jo (Doctor), Ким Ын Су (KBO Commissioner), Heung-rae Kim (Mr. Go), Jung-tae Kim (NC GM), Jun-hyeok Lee (Zeroz)-Описание: 15-летняя Вэйвэй остается одна со своей гориллой Линг Линг, после того как ее дедушка скончался в Китае. У ее дедушки была своя цирковая труппа. Благодаря любви деда к бейсболу, Линг Линг был обучен этой игре…-Премьера (мир): 17 июля 2013

-Качество: BDRip (by Ash61)
Контейнер: MKV
Формат 3D: Half OverUnder / Вертикальная анаморфная стереопара
Порядок ракурсов: левый ракурс первый
Видео кодек: x264
Аудио кодек: AC3-Видео: AVC / 23,976 fps / 1920х1080p / 17.3 Mbps
Аудио:
#1 - Русский / AC3 / 48 KHz / 5.1 ch / 448 Kbps (VO - PashaUp)
#2 - Chinese / AC3 / 48 KHz / 5.1 ch / 640 Kbps (BD 3D)
Субтитры [Внешние (SRT UTF-8)]:
#1 - Русские Полные (S.V.O.) edit
#2 - English Full

MediaInfo

General
Unique ID : 219958140784670630013656780510806662561 (0xA57A65A0CD50F37C9ED3351F4DDBDDA1)
Complete name : E:MrGo(2013)3D-halfOU(Ash61)VO-PashaUpMrGo(2013)3D-halfOU(Ash61)VO-PashaUp.mkv
Format : Matroska
Format version : Version 2
File size : 17.5 GiB
Duration : 2h 12mn
Overall bit rate : 18.8 Mbps
Movie name : Мистер Гоу / Mr. Go (2013) 3D
Encoded date : UTC 2014-08-03 09:50:41
Writing application : mkvmerge v5.8.0 ('No Sleep / Pillow') built on Sep 2 2012 15:37:04
Writing library : libebml v1.2.3 + libmatroska v1.3.0
Video
ID : 1
Format : AVC
Format/Info : Advanced Video Codec
Format profile : High@L4.1
Format settings, CABAC : Yes
Format settings, ReFrames : 4 frames
Codec ID : V_MPEG4/ISO/AVC
Duration : 2h 12mn
Bit rate : 17.3 Mbps
Width : 1 920 pixels
Height : 1 080 pixels
Display aspect ratio : 16:9
Frame rate mode : Constant
Frame rate : 23.976 fps
Color space : YUV
Chroma subsampling : 4:2:0
Bit depth : 8 bits
Scan type : Progressive
Bits/(Pixel*Frame) : 0.349
Stream size : 16.1 GiB (92%)
Title : BDRip by Ash61
Writing library : x264 core 129 r2245 bc13772
Encoding settings : cabac=1 / ref=4 / deblock=1:-3:-3 / analyse=0x3:0x113 / me=umh / subme=10 / psy=1 / psy_rd=1.00:0.15 / mixed_ref=1 / me_range=32 / chroma_me=1 / trellis=2 / 8x8dct=1 / cqm=0 / deadzone=21,11 / fast_pskip=1 / chroma_qp_offset=-3 / threads=12 / lookahead_threads=2 / sliced_threads=0 / nr=0 / decimate=1 / interlaced=0 / bluray_compat=0 / constrained_intra=0 / bframes=8 / b_pyramid=2 / b_adapt=2 / b_bias=0 / direct=3 / weightb=1 / open_gop=0 / weightp=2 / keyint=250 / keyint_min=23 / scenecut=40 / intra_refresh=0 / rc_lookahead=60 / rc=crf / mbtree=1 / crf=17.0 / qcomp=0.70 / qpmin=0 / qpmax=69 / qpstep=4 / vbv_maxrate=40000 / vbv_bufsize=30000 / crf_max=0.0 / nal_hrd=none / frame-packing=4 / ip_ratio=1.40 / aq=1:0.70
Language : Chinese
Default : Yes
Forced : No
Audio #1
ID : 2
Format : AC-3
Format/Info : Audio Coding 3
Mode extension : CM (complete main)
Format settings, Endianness : Big
Codec ID : A_AC3
Duration : 2h 12mn
Bit rate mode : Constant
Bit rate : 448 Kbps
Channel(s) : 6 channels
Channel positions : Front: L C R, Side: L R, LFE
Sampling rate : 48.0 KHz
Bit depth : 16 bits
Compression mode : Lossy
Stream size : 426 MiB (2%)
Title : Любительский одноголосый закадровый - pashaup
Language : Russian
Default : Yes
Forced : No
Audio #2
ID : 3
Format : AC-3
Format/Info : Audio Coding 3
Mode extension : CM (complete main)
Format settings, Endianness : Big
Codec ID : A_AC3
Duration : 2h 12mn
Bit rate mode : Constant
Bit rate : 640 Kbps
Channel(s) : 6 channels
Channel positions : Front: L C R, Side: L R, LFE
Sampling rate : 48.0 KHz
Bit depth : 16 bits
Compression mode : Lossy
Stream size : 608 MiB (3%)
Title : Original - BD 3D
Language : Chinese
Default : No
Forced : No
Menu
00:00:00.000 : :1
00:12:41.886 : :2
00:21:34.502 : :3
00:33:09.321 : :4
00:45:42.156 : :5
00:55:38.585 : :6
01:03:49.868 : :7
01:17:13.420 : :8
01:30:14.492 : :9
01:39:53.821 : :10
01:50:35.921 : :11
02:01:59.270 : :12

Для оценки 3Д - Анимированные скрины















--
[Профиль] [ЛС]
Кто просматривает тему:

Форум Тема Автор Размер
Отечественные мультфильмы Mister Пронька (мистер Пронька) (Леонид Носырев) [1991, Рисованный мультфильм, WEB-DLRip] TorrentFilm 221 MB
Фильмы (HD DVD, Blu-ray и BDRemux) Бог знает, мистер Аллисон / Heaven Knows, Mr. Allison (1957) BDRemux [1080p] Guest 28.39 GB
Зарубежные сериалы Джонатан Стрендж и мистер Норрелл / Jonathan Strange And Mr Norrell [S01] (2015) HDRip | LostFilm достали все 6.07 GB
Боевики, детективы, триллеры Кинг Стивен – Мистер Мерседес [Князев Игорь, 2014 г., 128 kbps, MP3] sergej644 999 MB
Мировая классика Марк Леви - Странное путешествие мистера Долдри (2015) MP3 Swager 370 MB
Фильмы 2011 года Мистер Бин на отдыхе / Mr. Bean\'s Holiday (Стив Бенделак / Steve Bendelack) [2007, Великобритания, Франция, Германия, Комедия, семейный, BDRip] DVO (Universal Channel) + DVO (ТРК Украина) reversefile 1.46 GB
Фильмы 2011 года Мистер Бонс / Mr.Bones (Грей Хоффмейр / Gray Hofmeyr) [2001 г., Комедия, DVDRip] Richi Keeper 1.47 GB
Зарубежные Мистер Гоу в 3Д / Mr. Go 3D / Mi-seu-teo Go 3D (Ким Ён-хва / Kim Yong-hwa) [2013, Комедия, драма, приключения, BDremux, 1080p] BD3D TorrentFilm 35.01 GB
Показать сообщения:    

Текущее время: Сегодня 04:30

Часовой пояс: GMT



Вы не можете начинать темы
Вы не можете отвечать на сообщения
Вы не можете редактировать свои сообщения
Вы не можете удалять свои сообщения
Вы не можете голосовать в опросах
Вы не можете прикреплять файлы к сообщениям
Вы не можете скачивать файлы