Мистер Бонс / Mr.Bones (Грей Хоффмейр / Gray Hofmeyr) [2001 г., Комедия, DVDRip]

 
Автор Сообщение

Richi Keeper ®

Пол:

Стаж: 1 год 6 месяцев

Сообщений: 57

Откуда: Томская область



Награды: Нет

Торрент-статистика

Создавать темы 14-Май-2015 09:24

[Цитировать]

Мистер Бонс / Mr.Bones«You'll laugh till your bones hurt!»-- Год выпуска: 2001
Страна: ЮАР
Жанр: Комедия
Продолжительность: 1 ч 36 мин 50 сек (1:36:50.239)
Перевод: Профессиональный (многоголосый, закадровый)
Русские субтитры: нет--Режиссер: Грей Хоффмейр / Gray Hofmeyr--В ролях: Леон Шустер /Leon Schuster/, Дэвид Рэмзи /David Ramsey/, Фейзон Лав /Faizon Love/, Роберт Уайтхед /Robert Whitehead,Джейн Бенни, /Jane Benney/-- Уморительная комедия специально для поклонников "Невероятных приключений янки в Африке", "Золотого ребенка" и "Поездки в Америку". Наряду с актерами-людьми в фильме "блистают" слоны, бегемоты, носороги и прочие экзотические животные. Фейерверк из трюков, приколов и смешных положений!
Где-то над бескрайними просторами Африки терпит бедствие небольшой самолет. Вскоре племя местных аборигенов находит белокожего младенца, восседающего посреди саванны в огромном кресле и окруженного дикими львами. Свирепые хищники ведут себя на удивление смирно - не иначе он послан богами!..
Повзрослев, мальчишка проявляет недюжинные способности в гадании на костях, за что и получает прозвище Бонс (Кости), а заодно и авторитетную "должность" главного шамана племени. Бонс живет припеваючи и шаманит себе без проблем и забот, но однажды вождь дает ему ответственное задание: во что бы то ни стало разыскать и вернуть его пропавшего сына и единственного наследника, следы которого затерялись в "каменных джунглях" цивилизованного мира. И Бонс отправляется в путь, полный невероятных приключений и удивительных открытий…
--Качество: DVDRip
Формат: AVI
Видео кодек: XviD
Аудио кодек: AC3
Видео: размер кадра: 640x480, битрейт: 1711 кб/с
Аудио: Язык: русский, аудиокодек: AC3 5.1, битрейт аудио: 448 кб/с-
-

MediaInfo

D:\Кино\Мистер.Бонс.2001.DVDRip.avi
General
Complete name : D:\Кино\Мистер.Бонс.2001.DVDRip.avi
Format : AVI
Format/Info : Audio Video Interleave
File size : 698 MiB
Duration : 1h 36mn
Overall bit rate : 1 008 Kbps
Writing application : VirtualDubModRus 1.5.10.2 (build 2542/release)
Writing library : VirtualDubMod build 2542/release
Video #0
ID : 0
Format : MPEG-4 Visual
Format profile : Advanced Simple@L5
Format settings, BVOP : 3
Format settings, QPel : Yes
Format settings, GMC : No warppoints
Format settings, Matrix : Default (MPEG)
Muxing mode : Packed bitstream
Codec ID : XVID
Codec ID/Hint : XviD
Duration : 1h 36mn
Bit rate : 511 Kbps
Width : 640 pixels
Height : 480 pixels
Display aspect ratio : 4:3
Frame rate : 25.000 fps
Color space : YUV
Chroma subsampling : 4:2:0
Bit depth : 8 bits
Scan type : Progressive
Compression mode : Lossy
Bits/(Pixel*Frame) : 0.067
Stream size : 354 MiB (51%)
Writing library : XviD 1.2.0.dev47 (UTC 2006-11-01)
Audio #1
ID : 1
Format : AC-3
Format/Info : Audio Coding 3
Mode extension : CM (complete main)
Format settings, Endianness : Big
Codec ID : 2000
Duration : 1h 36mn
Bit rate mode : Constant
Bit rate : 448 Kbps
Channel(s) : 6 channels
Channel positions : Front: L C R, Side: L R, LFE
Sampling rate : 48.0 KHz
Bit depth : 16 bits
Compression mode : Lossy
Delay relative to video : 2s 236ms
Stream size : 310 MiB (44%)
Alignment : Split accross interleaves

Скриншоты




-
-


Последний раз редактировалось: Richi Keeper (2015-05-14 10:48), всего редактировалось 1 раз
[Профиль] [ЛС]

Создавать темы 06-Авг-2015 22:31 (спустя 2 месяца 23 дня)

Топик был перенесен из форума Фильмы до 2014 года в форум Фильмы до 2012 года
sergej644
 
Кто просматривает тему:

Форум Тема Автор Размер
Отечественные мультфильмы Mister Пронька (мистер Пронька) (Леонид Носырев) [1991, Рисованный мультфильм, WEB-DLRip] TorrentFilm 221 MB
Фильмы (HD DVD, Blu-ray и BDRemux) Бог знает, мистер Аллисон / Heaven Knows, Mr. Allison (1957) BDRemux [1080p] Guest 28.39 GB
Зарубежные сериалы Джонатан Стрендж и мистер Норрелл / Jonathan Strange And Mr Norrell [S01] (2015) HDRip | LostFilm достали все 6.07 GB
Боевики, детективы, триллеры Кинг Стивен – Мистер Мерседес [Князев Игорь, 2014 г., 128 kbps, MP3] sergej644 999 MB
Мировая классика Марк Леви - Странное путешествие мистера Долдри (2015) MP3 Swager 370 MB
Фильмы 2011 года Мистер Бин на отдыхе / Mr. Bean\'s Holiday (Стив Бенделак / Steve Bendelack) [2007, Великобритания, Франция, Германия, Комедия, семейный, BDRip] DVO (Universal Channel) + DVO (ТРК Украина) reversefile 1.46 GB
Зарубежные Мистер Гоу / Mi-seu-teo Go / Mr. Go (2013) BDRip 1080p от Ash61 | 3D-Video | halfOU | L1 sergej644 17.45 GB
Зарубежные Мистер Гоу в 3Д / Mr. Go 3D / Mi-seu-teo Go 3D (Ким Ён-хва / Kim Yong-hwa) [2013, Комедия, драма, приключения, BDremux, 1080p] BD3D TorrentFilm 35.01 GB
Показать сообщения:    

Текущее время: Сегодня 02:38

Часовой пояс: GMT



Вы не можете начинать темы
Вы не можете отвечать на сообщения
Вы не можете редактировать свои сообщения
Вы не можете удалять свои сообщения
Вы не можете голосовать в опросах
Вы не можете прикреплять файлы к сообщениям
Вы не можете скачивать файлы