Мистер Бин на отдыхе / Mr. Bean\'s Holiday (Стив Бенделак / Steve Bendelack) [2007, Великобритания, Франция, Германия, Комедия, семейный, BDRip] DVO (Universal Channel) + DVO (ТРК Украина)

 
Автор Сообщение

reversefile ®

Пол:

Стаж: 4 года 5 месяцев

Сообщений: 842

Откуда: ReverseFile.org



Награды: Нет

Торрент-статистика

Создавать темы 11-Авг-2014 10:42

[Цитировать]

Мистер Бин на отдыхе / Mr. Bean's Holiday
Страна: Великобритания, Франция, Германия
Жанр: Комедия, семейный
Год выпуска: 2007
Продолжительность: 01:29:34
Перевод: Профессиональный (двухголосый закадровый) Universal Channel
Перевод: Профессиональный (двухголосый закадровый) ТРК Украина
Cубтитры: нет
Оригинальная аудиодорожка: нет
Режиссер: Стив Бенделак / Steve Bendelack
В ролях: Роуэн Эткинсон, Уиллем Дефо, Жан Рошфор, Карел Роден, Макс Болдри, Стив Пембертон, Лили Эткинсон, Престон Найман, Шарлит Дейзак, Франсуа Туш
Описание: Мистер Бин отправляется на отдых на юг Франции, оставляя за собой повсюду яркие следы своих приключений. Недотепа и бедолага, мистер Бин снимает о своих неудачах любительский видеофильм, который умудряется даже показать на большом экране Каннского фестиваля.
Доп. информация: Рип найден в сети добавлены дорожки Русская, Украинская
Сэмпл: http://multi-up.com/989114, http://rusfolder.com/41307701
Качество видео: BDRip
Формат видео: AVI
Видео: 704x384 (1.83:1), 23.976 fps, XviD build 50 ~1938 kbps
Аудио: 48 kHz, AC3 Dolby Digital, 2/0 (L,R) ch, ~192 kbps Русский
Аудио: 48 kHz, AC3 Dolby Digital, 2/0 (L,R) ch, ~192 kbps Украинский

MediaInfo

Общее
Полное имя : D:\Мистер Бин на отдыхе (Mr. Bean's Holiday ) [2007] (RUS-UKR).avi
Формат : AVI
Формат/Информация : Audio Video Interleave
Размер файла : 1,46 Гбайт
Продолжительность : 1 ч. 29 м.
Общий поток : 2337 Кбит/сек
Программа кодирования : VirtualDubMod 1.5.4.1 (build 2178/release)
Видео
Идентификатор : 0
Формат : MPEG-4 Visual
Профиль формата : Advanced Simple@L5
Параметр BVOP формата : 1
Параметр QPel формата : Нет
Параметр GMC формата : Без точки перехода
Параметр матрицы формата : Выборочная
Идентификатор кодека : XVID
Идентификатор кодека/Подсказка : XviD
Продолжительность : 1 ч. 29 м.
Битрейт : 1939 Кбит/сек
Ширина : 704 пикселя
Высота : 384 пикселя
Соотношение сторон : 1,85:1
Частота кадров : 23,976 кадра/сек
Цветовое пространство : YUV
Субдискретизация насыщенности : 4:2:0
Битовая глубина : 8 бит
Тип развёртки : Прогрессивная
Метод сжатия : С потерями
Бит/(Пиксели*Кадры) : 0.299
Размер потока : 1,21 Гбайт (83%)
Заголовок : Мистер Бин на отдыхе / Mr. Bean's Holiday (2007) BDRip
Библиотека кодирования : XviD 1.2.1 (UTC 2008-12-04)
Аудио #1
Идентификатор : 1
Формат : AC-3
Формат/Информация : Audio Coding 3
Расширение режима : CM (complete main)
Параметр Endianness формата : Big
Идентификатор кодека : 2000
Продолжительность : 1 ч. 29 м.
Вид битрейта : Постоянный
Битрейт : 192 Кбит/сек
Каналы : 2 канала
Расположение каналов : Front: L R
Частота : 48,0 КГц
Битовая глубина : 16 бит
Метод сжатия : С потерями
Размер потока : 123 Мбайт (8%)
Выравнивание : Разделение по промежуткам
Продолжительность промежутка : 42 мс. (1,00 видеокадр)
Время предзагрузки промежутка : 500 мс.
Аудио #2
Идентификатор : 2
Формат : AC-3
Формат/Информация : Audio Coding 3
Расширение режима : CM (complete main)
Параметр Endianness формата : Big
Идентификатор кодека : 2000
Продолжительность : 1 ч. 29 м.
Вид битрейта : Постоянный
Битрейт : 192 Кбит/сек
Каналы : 2 канала
Расположение каналов : Front: L R
Частота : 48,0 КГц
Битовая глубина : 16 бит
Метод сжатия : С потерями
Размер потока : 123 Мбайт (8%)
Выравнивание : Разделение по промежуткам
Продолжительность промежутка : 42 мс. (1,00 видеокадр)
Время предзагрузки промежутка : 500 мс.

AviInfo

File: Мистер Бин на отдыхе (Mr. Bean's Holiday ) [2007] (RUS-UKR).avi
Filesize: 1497.30 Mb ( 1 570 037 760 bytes )
Play length: 01:29:34.740 (128865 frames)
Subtitles: Present (TMPlayer format)
Video: 704x384 (1.83:1), 23.976 fps, XviD build 50 ~1938 kbps avgAudio #1: 48 kHz, AC3 Dolby Digital, 2/0 (L,R) ch, ~192 kbps
Audio #2: 48 kHz, AC3 Dolby Digital, 2/0 (L,R) ch, ~192 kbps

Скриншот c названием фильма

Скриншоты

[Профиль] [ЛС]

Создавать темы 06-Авг-2015 23:20 (спустя 11 месяцев 26 дней)

Топик был перенесен из форума Фильмы до 2014 года в форум Фильмы до 2012 года
sergej644
 
Показать сообщения:    

Текущее время: Сегодня 01:09

Часовой пояс: GMT



Вы не можете начинать темы
Вы не можете отвечать на сообщения
Вы не можете редактировать свои сообщения
Вы не можете удалять свои сообщения
Вы не можете голосовать в опросах
Вы не можете прикреплять файлы к сообщениям
Вы не можете скачивать файлы