Мисс Поттер / Miss Potter (2006) BDRip 1080p | D

 
Автор Сообщение

sergej644 ®

Пол:

Стаж: 4 года 11 месяцев

Сообщений: 6045

Откуда: Soviet Union



Награды: Нет

Торрент-статистика

Создавать темы 23-Фев-2015 08:13

[Цитировать]

--Мисс Поттер / Miss Potter
Год выпуска: 2006
Страна: Великобритания, США, Остров Мэн
Жанр: драма, биография
Продолжительность: 01:28:49
Перевод: дублированный
Субтитры: русские, английские
Режиссёр: Крис Нунен
В ролях: Рене Зеллвегер, Эван МакГрегор, Эмили Уотсон, Барбара Флинн, Билл Патерсон, Мэтилок Гиббс, Ллойд Оуэн, Энтон Лессер, Дэвид Бамбер, Филлида Ло
Описание: Основанный на реальных событиях, фильм рассказывает о жизни английской детской писательницы конца 19-го века Беатрикс Поттер. В эпоху, когда большинство молодых женщин её сословия мечтали только о выгодном замужестве, Беатрикс пошла наперекор обычаям и традициям викторианской Англии, проявив свободомыслие, отнюдь не характерное для женщин своего времени...

Качество: BDRip 1080p
Формат: MKV
Видео кодек: H.264
Аудио кодек: AC3, DTS
Видео: 10.9 Mбит/с, 1920x798, 25 кадра/с, 0.284 bpp
Аудио 1: русский, AC3, 448 kbps, 6 ch, 48 kHz [дублированный]
Аудио 2: английский, DTS, 1509 kbps, 6 ch, 48 kHz [оригинал]
Имеются неименованные главы/чаптеры.

Награды

Золотой глобус, 2007 год
Номинации (1):
Лучшая женская роль (комедия или мюзикл) (Рене Зеллвегер)
Сатурн, 2007 год
Номинации (1):
Лучшая актриса (Рене Зеллвегер)

Кванты и MediaInfo

frame I:1044 Avg QP:14.29 size:200193
frame P:25893 Avg QP:15.00 size: 86595
frame B:106289 Avg QP:17.11 size: 46663
Общее
Уникальный идентификатор : 208098336737017975442523448156761745679 (0x9C8E4824B190C054A9471584C125E90F)
Полное имя : D:VideoMiss Potter.2006.BDRip.1080p.mkv
Формат : Matroska
Версия формата : Version 4 / Version 2
Размер файла : 8,12 Гбайт
Продолжительность : 1 ч. 28 м.
Общий поток : 13,1 Мбит/сек
Дата кодирования : UTC 2015-02-23 06:10:37
Программа кодирования : mkvmerge v7.6.0 ('Garden of Dreams') 64bit built on Feb 8 2015 13:04:34
Библиотека кодирования : libebml v1.3.1 + libmatroska v1.4.2
_STATISTICS_WRITING_APP : mkvmerge v7.6.0 ('Garden of Dreams') 64bit built on Feb 8 2015 13:04:34
_STATISTICS_WRITING_DATE_UTC : 2015-02-23 06:10:37
_STATISTICS_TAGS : BPS DURATION NUMBER_OF_FRAMES NUMBER_OF_BYTES
DURATION : 01:28:49.046000000
NUMBER_OF_FRAMES : 499598
NUMBER_OF_BYTES : 1005191264
Видео
Идентификатор : 1
Формат : AVC
Формат/Информация : Advanced Video Codec
Профиль формата : High@L4.1
Параметр CABAC формата : Да
Параметр ReFrames формата : 4 кадра
Идентификатор кодека : V_MPEG4/ISO/AVC
Продолжительность : 1 ч. 28 м.
Битрейт : 10,9 Мбит/сек
Ширина : 1920 пикселей
Высота : 798 пикселей
Соотношение сторон : 2,40:1
Режим частоты кадров : Постоянный
Частота кадров : 25,000 кадров/сек
Цветовое пространство : YUV
Субдискретизация насыщенности : 4:2:0
Битовая глубина : 8 бит
Тип развёртки : Прогрессивная
Бит/(Пиксели*Кадры) : 0.284
Размер потока : 6,74 Гбайт (83%)
Заголовок : BDRip -- STarankov
Библиотека кодирования : x264 core 142 r2431 ac76440
Настройки программы : cabac=1 / ref=4 / deblock=1:-1:-1 / analyse=0x3:0x113 / me=umh / subme=9 / psy=1 / psy_rd=1.00:0.15 / mixed_ref=1 / me_range=32 / chroma_me=1 / trellis=2 / 8x8dct=1 / cqm=0 / deadzone=21,11 / fast_pskip=1 / chroma_qp_offset=-3 / threads=6 / lookahead_threads=1 / sliced_threads=0 / nr=0 / decimate=1 / interlaced=0 / bluray_compat=0 / constrained_intra=0 / bframes=8 / b_pyramid=2 / b_adapt=2 / b_bias=0 / direct=3 / weightb=1 / open_gop=0 / weightp=2 / keyint=240 / keyint_min=24 / scenecut=40 / intra_refresh=0 / rc_lookahead=40 / rc=crf / mbtree=0 / crf=17.8 / qcomp=0.60 / qpmin=0 / qpmax=69 / qpstep=4 / vbv_maxrate=40000 / vbv_bufsize=50000 / crf_max=0.0 / nal_hrd=none / filler=0 / ip_ratio=1.40 / pb_ratio=1.30 / aq=1:1.00
Язык : English
Default : Да
Forced : Нет
DURATION : 01:28:49.040000000
NUMBER_OF_FRAMES : 133226
NUMBER_OF_BYTES : 7411005960
_STATISTICS_WRITING_APP : mkvmerge v7.6.0 ('Garden of Dreams') 64bit built on Feb 8 2015 13:04:34
_STATISTICS_WRITING_DATE_UTC : 2015-02-23 06:10:37
_STATISTICS_TAGS : BPS DURATION NUMBER_OF_FRAMES NUMBER_OF_BYTES
Аудио #1
Идентификатор : 2
Формат : AC-3
Формат/Информация : Audio Coding 3
Расширение режима : CM (complete main)
Параметр Endianness формата : Big
Идентификатор кодека : A_AC3
Продолжительность : 1 ч. 28 м.
Вид битрейта : Постоянный
Битрейт : 448 Кбит/сек
Каналы : 6 каналов
Расположение каналов : Front: L C R, Side: L R, LFE
Частота : 48,0 КГц
Битовая глубина : 16 бит
Метод сжатия : С потерями
Размер потока : 285 Мбайт (3%)
Заголовок : DUB
Язык : Russian
Default : Да
Forced : Нет
Аудио #2
Идентификатор : 3
Формат : DTS
Формат/Информация : Digital Theater Systems
Режим : 16
Параметр Endianness формата : Big
Идентификатор кодека : A_DTS
Продолжительность : 1 ч. 28 м.
Вид битрейта : Постоянный
Битрейт : 1509 Кбит/сек
Каналы : 6 каналов
Расположение каналов : Front: L C R, Side: L R, LFE
Частота : 48,0 КГц
Битовая глубина : 16 бит
Метод сжатия : С потерями
Размер потока : 959 Мбайт (12%)
Заголовок : Original
Язык : English
Default : Нет
Forced : Нет
Текст #1
Идентификатор : 4
Формат : UTF-8
Идентификатор кодека : S_TEXT/UTF8
Идентификатор кодека/Информация : UTF-8 Plain Text
Заголовок : русский
Язык : Russian
Default : Нет
Forced : Нет
Текст #2
Идентификатор : 5
Формат : UTF-8
Идентификатор кодека : S_TEXT/UTF8
Идентификатор кодека/Информация : UTF-8 Plain Text
Заголовок : английский
Default : Нет
Forced : Нет
Меню
00:00:00.000 : :Chapter 01
00:08:05.359 : :Chapter 02
00:16:06.840 : :Chapter 03
00:22:07.680 : :Chapter 04
00:27:05.440 : :Chapter 05
00:35:26.000 : :Chapter 06
00:38:31.639 : :Chapter 07
00:51:54.039 : :Chapter 08
00:55:57.679 : :Chapter 09
01:01:29.559 : :Chapter 10
01:12:16.359 : :Chapter 11
01:18:03.479 : :Chapter 12

Сравнение


Скриншоты

[Профиль] [ЛС]
Кто просматривает тему:

Показать сообщения:    

Текущее время: Сегодня 08:00

Часовой пояс: GMT



Вы не можете начинать темы
Вы не можете отвечать на сообщения
Вы не можете редактировать свои сообщения
Вы не можете удалять свои сообщения
Вы не можете голосовать в опросах
Вы не можете прикреплять файлы к сообщениям
Вы не можете скачивать файлы