Мисс миллионерша (Александр Рогожкин)[1988, Комедия, DVDRip] [H.264]

 
Автор Сообщение

sergej644 ®

Пол:

Стаж: 4 года 11 месяцев

Сообщений: 6046

Откуда: Soviet Union



Награды: Нет

Торрент-статистика

Создавать темы 05-Июл-2015 13:25

[Цитировать]

- Мисс миллионерша (1988) DVDRip [H.264] - Год выпуска: 1988
Производство: СССР / Ленфильм
Жанр: Комедия
Режиссер: Александр Рогожкин
Актеры: Николай Караченцов, Татьяна Михалевкина, Юрий Дубровин, Елена Мельникова, Наталья Назарова, Оксана Мысина, Никита Михайловский, Владимир Тягичев, Александр Новиков, Виктор Бычков, Сергей Проханов
Описание:
В начале «перестройки» городские власти готовятся к очередному мероприятию в духе застойных времен. Режиссеру с достаточно «ершистым» характером поручают снять материал о рождении миллионного жителя. Но когда он находит героиню сюжета, «позитивного» материала не получается, так как эта семья для рекламы счастливой жизни никак не подходит…

Продолжительность: 01:31:05
Качество видео: DVDRip
Видео кодек: AVC
Аудио кодек: AC-3
Видео: AVC/H.264, 720x528, ~1650 Kbps
Аудио: AC3, 2 ch, 192 Kbps

Mediainfo:

General
Unique ID                                : 221335778959925964918380063388514586732 (0xA683B86F2B851826A97C1E8C48A3106C)
Complete name                            : F:\Downloads\Мисс  миллионерша.mkv
Format                                   : Matroska
Format version                           : Version 4 / Version 2
File size                                : 1.17 GiB
Duration                                 : 1h 31mn
Overall bit rate                         : 1 843 Kbps
Encoded date                             : UTC 2015-07-05 11:19:56
Writing application                      : mkvmerge v7.0.0 ('Where We Going') 32bit built on Jun  9 2014 15:08:34
Writing library                          : libebml v1.3.0 + libmatroska v1.4.1
DURATION                                 : 01:30:34.336000000
NUMBER_OF_FRAMES                         : 169823
NUMBER_OF_BYTES                          : 130424064
_STATISTICS_WRITING_APP                  : mkvmerge v7.0.0 ('Where We Going') 32bit built on Jun  9 2014 15:08:34
_STATISTICS_WRITING_DATE_UTC             : 2015-07-05 11:19:56
_STATISTICS_TAGS                         : BPS DURATION NUMBER_OF_FRAMES NUMBER_OF_BYTES
Video
ID                                       : 1
Format                                   : AVC
Format/Info                              : Advanced Video Codec
Format profile                           : [url=mailto:High@L3.1]High@L3.1[/url]
Format settings, CABAC                   : Yes
Format settings, ReFrames                : 8 frames
Codec ID                                 : V_MPEG4/ISO/AVC
Duration                                 : 1h 31mn
Bit rate                                 : 1 650 Kbps
Width                                    : 720 pixels
Height                                   : 528 pixels
Display aspect ratio                     : 4:3
Frame rate mode                          : Constant
Frame rate                               : 25.000 fps
Color space                              : YUV
Chroma subsampling                       : 4:2:0
Bit depth                                : 8 bits
Scan type                                : Progressive
Bits/(Pixel*Frame)                       : 0.174
Stream size                              : 1.03 GiB (88%)
Title                                    : Мисс  миллионерша (1988)
Writing library                          : x264 core 125 r2208 d9d2288
Encoding settings                        : cabac=1 / ref=8 / deblock=1:-1:-1 / analyse=0x3:0x133 / me=umh / subme=9 / psy=1 / psy_rd=1.00:0.10 / mixed_ref=1 / me_range=32 / chroma_me=1 / trellis=2 / 8x8dct=1 / cqm=0 / deadzone=21,11 / fast_pskip=0 / chroma_qp_offset=-3 / threads=6 / lookahead_threads=1 / sliced_threads=0 / nr=0 / decimate=1 / interlaced=0 / bluray_compat=0 / constrained_intra=0 / bframes=3 / b_pyramid=2 / b_adapt=2 / b_bias=0 / direct=3 / weightb=1 / open_gop=0 / weightp=2 / keyint=250 / keyint_min=25 / scenecut=40 / intra_refresh=0 / rc_lookahead=60 / rc=2pass / mbtree=1 / bitrate=1650 / ratetol=1.0 / qcomp=0.60 / qpmin=0 / qpmax=69 / qpstep=4 / cplxblur=20.0 / qblur=0.5 / ip_ratio=1.40 / aq=1:1.00
Language                                 : Russian
Default                                  : Yes
Forced                                   : No
Audio
ID                                       : 2
Format                                   : AC-3
Format/Info                              : Audio Coding 3
Mode extension                           : CM (complete main)
Format settings, Endianness              : Big
Codec ID                                 : A_AC3
Duration                                 : 1h 31mn
Bit rate mode                            : Constant
Bit rate                                 : 192 Kbps
Channel(s)                               : 2 channels
Channel positions                        : Front: L R
Sampling rate                            : 48.0 KHz
Bit depth                                : 16 bits
Compression mode                         : Lossy
Stream size                              : 125 MiB (10%)
Title                                    : Русский, AC3, 2 ch, 192 Kbps
Language                                 : Russian
Default                                  : Yes
Forced                                   : No
Скриншоты:
--
[Профиль] [ЛС]

Создавать темы 06-Авг-2015 22:00 (спустя 1 месяц 1 день)

Топик был перенесен из форума Кино СССР в форум Кино СССР
sergej644
 
Кто просматривает тему:

Показать сообщения:    

Текущее время: Сегодня 14:02

Часовой пояс: GMT



Вы не можете начинать темы
Вы не можете отвечать на сообщения
Вы не можете редактировать свои сообщения
Вы не можете удалять свои сообщения
Вы не можете голосовать в опросах
Вы не можете прикреплять файлы к сообщениям
Вы не можете скачивать файлы