Мисс Конгениальность 2: Прекрасна и опасна / Miss Congeniality 2: Armed and Fabulous (2005) BDRip 720p by msltel | D, P2

 
Автор Сообщение

sergej644 ®

Пол:

Стаж: 4 года 11 месяцев

Сообщений: 6044

Откуда: Soviet Union



Награды: Нет

Торрент-статистика

Создавать темы 29-Янв-2015 21:22

[Цитировать]

Название: Мисс Конгениальность 2: Прекрасна и опасна
Оригинальное название: Miss Congeniality 2: Armed & Fabulous
Год выпуска: 2005
Жанр: Комедия, боевик, криминал
Выпущено: США, Австралия, Castle Rock Entertainment, Fortis Films, Village Roadshow Pictures
Режиссер: Джон Пасквин
В ролях: Сандра Баллок, Реджина Кинг, Энрике Муркьяно, Уильям Шэтнер, Эрни Хадсон, Дидрих Бадер, Хезер Бёрнс, Трит Уильямс, Эйбрахам Бенруби, Ник Оффермэн, Айлин Бреннан, Лесли Эрин Гроссман, Люсия Струс, Сьюзан Чуэнг, Джон ДиРеста, Одри Василевски
О фильме: События начинают разворачиваться вскоре после того как агент ФБР Грейси Харт под видом одной из конкурсанток успешно справляется с важным заданием на конкурсе красоты «Мисс Америка». После своих геройских подвигов, сделавших её звездой телевидения и прессы, Грейси начинает уделять все меньше времени оперативной работе, занимаясь написанием книги и съёмками в различных телешоу. Когда же выясняется, что её друзей - победительницу конкурса красоты Шерил и импресарио Стэна - похищают в Лас-Вегасе, попытки Грейси вернуться на проторенную стезю и спасти друзей приводят к конфликту с руководством ФБР, которое не хочет терять визитную карточку своей организации в её лице, опасаясь, что она может провалить операцию…

Качество: BDRip 720p
Видео: MPEG-4 AVC, 3998 Кбит/с, 1280х530
Аудио: Русский, английский (AC3, 6 ch, 448 Кбит/с)
Размер: 4.39 ГБ
Продолжительность: 01:55:20
Перевод: Дублированный, профессиональный двухголосый (Tycoon)
Субтитры: Русские, английские
Имеются неименованные главы/чаптеры.
Исходник: Sergei7721 (Кинозал)

MediaInfo + Лог х264

Общее
Уникальный идентификатор : 225298824573478895488297305521453570633 (0xA97EF9AB2C176597954D47C03A009A49)
Полное имя : D:VideoMiss Kongenialnost 2.2005.BDRip.720p.mkv
Формат : Matroska
Версия формата : Version 4 / Version 2
Размер файла : 4,39 Гбайт
Продолжительность : 1 ч. 55 м.
Общий поток : 5450 Кбит/сек
Дата кодирования : UTC 2014-07-11 03:03:47
Программа кодирования : mkvmerge v6.9.1 ('Blue Panther') 64bit built on Apr 18 2014 18:23:38
Библиотека кодирования : libebml v1.3.0 + libmatroska v1.4.1
Видео
Идентификатор : 1
Формат : AVC
Формат/Информация : Advanced Video Codec
Профиль формата : High@L4.1
Параметр CABAC формата : Да
Параметр ReFrames формата : 9 кадров
Идентификатор кодека : V_MPEG4/ISO/AVC
Продолжительность : 1 ч. 55 м.
Битрейт : 3998 Кбит/сек
Ширина : 1280 пикселей
Высота : 530 пикселей
Соотношение сторон : 2,40:1
Режим частоты кадров : Постоянный
Частота кадров : 23,976 кадра/сек
Цветовое пространство : YUV
Субдискретизация насыщенности : 4:2:0
Битовая глубина : 8 бит
Тип развёртки : Прогрессивная
Бит/(Пиксели*Кадры) : 0.246
Размер потока : 3,22 Гбайт (73%)
Заголовок : BDRip -- STarankov
Библиотека кодирования : x264 core 142 r2431 ac76440
Настройки программы : cabac=1 / ref=9 / deblock=1:-1:-1 / analyse=0x3:0x113 / me=umh / subme=10 / psy=1 / psy_rd=1.00:0.15 / mixed_ref=1 / me_range=32 / chroma_me=1 / trellis=2 / 8x8dct=1 / cqm=0 / deadzone=21,11 / fast_pskip=0 / chroma_qp_offset=-3 / threads=6 / lookahead_threads=1 / sliced_threads=0 / nr=0 / decimate=1 / interlaced=0 / bluray_compat=0 / constrained_intra=0 / bframes=8 / b_pyramid=2 / b_adapt=2 / b_bias=0 / direct=1 / weightb=1 / open_gop=0 / weightp=2 / keyint=230 / keyint_min=23 / scenecut=40 / intra_refresh=0 / rc_lookahead=40 / rc=crf / mbtree=0 / crf=17.0 / qcomp=0.60 / qpmin=0 / qpmax=69 / qpstep=4 / vbv_maxrate=40000 / vbv_bufsize=50000 / crf_max=0.0 / nal_hrd=none / filler=0 / ip_ratio=1.40 / pb_ratio=1.30 / aq=1:1.00
Язык : English
Default : Да
Forced : Нет
Аудио #1
Идентификатор : 2
Формат : AC-3
Формат/Информация : Audio Coding 3
Расширение режима : CM (complete main)
Параметр Endianness формата : Big
Идентификатор кодека : A_AC3
Продолжительность : 1 ч. 55 м.
Вид битрейта : Постоянный
Битрейт : 448 Кбит/сек
Каналы : 6 каналов
Расположение каналов : Front: L C R, Side: L R, LFE
Частота : 48,0 КГц
Битовая глубина : 16 бит
Метод сжатия : С потерями
Размер потока : 370 Мбайт (8%)
Заголовок : DUB
Язык : Russian
Default : Да
Forced : Нет
Аудио #2
Идентификатор : 3
Формат : AC-3
Формат/Информация : Audio Coding 3
Расширение режима : CM (complete main)
Параметр Endianness формата : Big
Идентификатор кодека : A_AC3
Продолжительность : 1 ч. 55 м.
Вид битрейта : Постоянный
Битрейт : 448 Кбит/сек
Каналы : 6 каналов
Расположение каналов : Front: L C R, Side: L R, LFE
Частота : 48,0 КГц
Битовая глубина : 16 бит
Метод сжатия : С потерями
Размер потока : 370 Мбайт (8%)
Заголовок : DVO (Tycoon)
Язык : Russian
Default : Нет
Forced : Нет
Аудио #3
Идентификатор : 4
Формат : AC-3
Формат/Информация : Audio Coding 3
Расширение режима : CM (complete main)
Параметр Endianness формата : Big
Идентификатор кодека : A_AC3
Продолжительность : 1 ч. 55 м.
Вид битрейта : Постоянный
Битрейт : 448 Кбит/сек
Каналы : 6 каналов
Расположение каналов : Front: L C R, Side: L R, LFE
Частота : 48,0 КГц
Битовая глубина : 16 бит
Метод сжатия : С потерями
Размер потока : 370 Мбайт (8%)
Заголовок : Original
Язык : English
Default : Нет
Forced : Нет
Текст #1
Идентификатор : 5
Формат : UTF-8
Идентификатор кодека : S_TEXT/UTF8
Идентификатор кодека/Информация : UTF-8 Plain Text
Заголовок : русский
Язык : Russian
Default : Нет
Forced : Нет
Текст #2
Идентификатор : 6
Формат : UTF-8
Идентификатор кодека : S_TEXT/UTF8
Идентификатор кодека/Информация : UTF-8 Plain Text
Заголовок : английский
Default : Нет
Forced : Нет
Меню
00:00:00.000 : en:Chapter 1
00:03:22.869 : en:Chapter 2
00:05:53.436 : en:Chapter 3
00:07:57.268 : en:Chapter 4
00:11:55.548 : en:Chapter 5
00:15:51.158 : en:Chapter 6
00:18:03.248 : en:Chapter 7
00:22:55.082 : en:Chapter 8
00:26:32.048 : en:Chapter 9
00:29:26.556 : en:Chapter 10
00:32:43.878 : en:Chapter 11
00:36:01.534 : en:Chapter 12
00:38:31.434 : en:Chapter 13
00:44:44.139 : en:Chapter 14
00:49:42.813 : en:Chapter 15
00:54:41.820 : en:Chapter 16
00:58:48.358 : en:Chapter 17
01:01:59.006 : en:Chapter 18
01:04:08.803 : en:Chapter 19
01:08:15.382 : en:Chapter 20
01:11:20.693 : en:Chapter 21
01:15:31.235 : en:Chapter 22
01:19:13.582 : en:Chapter 23
01:21:52.991 : en:Chapter 24
01:27:47.345 : en:Chapter 25
01:30:42.895 : en:Chapter 26
01:34:32.541 : en:Chapter 27
01:37:09.907 : en:Chapter 28
01:39:07.316 : en:Chapter 29
01:43:49.431 : en:Chapter 30
01:47:31.778 : en:Chapter 31
01:55:20.705 : en:Chapter 32
---[Information] [09.07.2014 22:49:16] raw [info]: 1280x530p 1:1 @ 24000/1001 fps (cfr)
---[Information] [09.07.2014 22:49:16] x264 [info]: using SAR=1/1
---[Information] [09.07.2014 22:49:16] x264 [info]: using cpu capabilities: MMX2 SSE2Fast SSSE3 SSE4.2
---[Information] [09.07.2014 22:49:16] x264 [info]: profile High, level 4.1
---[Information] [10.07.2014 5:40:15] x264 [info]: frame I:1594 Avg QP:16.20 size: 88655
---[Information] [10.07.2014 5:40:15] x264 [info]: frame P:35133 Avg QP:17.34 size: 40243
---[Information] [10.07.2014 5:40:15] x264 [info]: frame B:129210 Avg QP:19.60 size: 15440
---[Information] [10.07.2014 5:40:15] x264 [info]: consecutive B-frames: 1.6% 1.6% 5.1% 29.2% 17.9% 35.1% 5.4% 2.8% 1.3%
---[Information] [10.07.2014 5:40:15] x264 [info]: mb I I16..4: 7.2% 71.7% 21.1%
---[Information] [10.07.2014 5:40:15] x264 [info]: mb P I16..4: 1.2% 21.3% 3.5% P16..4: 29.8% 25.9% 14.1% 0.0% 0.0% skip: 4.2%
---[Information] [10.07.2014 5:40:15] x264 [info]: mb B I16..4: 0.1% 2.7% 0.5% B16..8: 37.3% 16.7% 4.4% direct: 9.1% skip:29.1% L0:42.0% L1:40.0% BI:18.0%
---[Information] [10.07.2014 5:40:15] x264 [info]: 8x8 transform intra:80.8% inter:51.6%
---[Information] [10.07.2014 5:40:15] x264 [info]: coded y,uvDC,uvAC intra: 92.6% 88.9% 71.2% inter: 33.5% 22.4% 3.6%
---[Information] [10.07.2014 5:40:15] x264 [info]: i16 v,h,dc,p: 37% 12% 13% 38%
---[Information] [10.07.2014 5:40:15] x264 [info]: i8 v,h,dc,ddl,ddr,vr,hd,vl,hu: 16% 10% 13% 7% 10% 11% 9% 11% 12%
---[Information] [10.07.2014 5:40:15] x264 [info]: i4 v,h,dc,ddl,ddr,vr,hd,vl,hu: 27% 8% 4% 7% 12% 13% 10% 10% 10%
---[Information] [10.07.2014 5:40:15] x264 [info]: i8c dc,h,v,p: 40% 24% 21% 15%
---[Information] [10.07.2014 5:40:15] x264 [info]: Weighted P-Frames: Y:5.3% UV:2.1%
---[Information] [10.07.2014 5:40:15] x264 [info]: ref P L0: 42.1% 11.2% 20.2% 6.7% 6.6% 4.1% 4.3% 2.1% 2.5% 0.2% 0.0%
---[Information] [10.07.2014 5:40:15] x264 [info]: ref B L0: 73.2% 12.5% 5.4% 3.2% 2.2% 2.0% 1.0% 0.5%
---[Information] [10.07.2014 5:40:15] x264 [info]: ref B L1: 93.6% 6.4%
---[Information] [10.07.2014 5:40:15] x264 [info]: kb/s:4103.72
---[Information] [10.07.2014 5:40:15] encoded 165937 frames, 6.73 fps, 4103.72 kb/s
--[Information] [10.07.2014 5:40:16] Final statistics
---[Information] [10.07.2014 5:40:16] Constant Quality Mode: Quality 17 computed...
---[Information] [10.07.2014 5:40:16] Video Bitrate Obtained (approximate): 4105 kbit/s
--[Information] [10.07.2014 5:40:16] MediaInfo
---[Information] [10.07.2014 5:40:16] File: D:RipMiss Kongenialnost 2.2005.BDRipMiss Kongenialnost 2.2005.BDRip.720p.mkv

Скриншоты

[Профиль] [ЛС]
Кто просматривает тему:

Показать сообщения:    

Текущее время: Сегодня 12:15

Часовой пояс: GMT



Вы не можете начинать темы
Вы не можете отвечать на сообщения
Вы не можете редактировать свои сообщения
Вы не можете удалять свои сообщения
Вы не можете голосовать в опросах
Вы не можете прикреплять файлы к сообщениям
Вы не можете скачивать файлы