Миссия «Серенити» / Serenity (Джосс Уидон /Joss Whedon)[2005, фантастика, боевик, триллер, приключения, BDRip] 720p | D

 
Автор Сообщение

sergej644 ®

Пол:

Стаж: 4 года 11 месяцев

Сообщений: 6043

Откуда: Soviet Union



Награды: Нет

Торрент-статистика

Создавать темы 29-Май-2015 15:21

[Цитировать]

Миссия «Серенити» / Serenity (2005) BDRip 720p

Информация о фильме
Название: Миссия «Серенити»
Оригинальное название: Serenity
Год выхода: 2005
Жанр: фантастика, боевик, триллер, приключения
Режиссер: Джосс Уидон /Joss Whedon/
В ролях: Натан Филлион /Nathan Fillion/, Джина Торрес /Gina Torres/, Алан Тьюдик /Alan Tudyk/, Морена Баккарин /Morena Baccarin/, Адам Болдуин /Adam Baldwin/, Джуэл Стэйт /Jewel Staite/, Шон Маэр /Sean Maher/, Саммер Глау /Summer Glau/, Рон Гласс /Ron Glass/, Чиветел Эджиофор /Chiwetel Ejiofor/...
О фильме:
Космический «морской волк» и ветеран Гражданской Галактической войны Малькольм «Мэл» Рейнольдс — теперь всего лишь капитан транспортного корабля. Когда они взяли на борт пассажиров — молодого доктора и его странную сестру с телепатическими способностями, ни он, ни его товарищи не предполагали, в какую историю ввяжутся. Спасаясь сразу от нескольких могущественных врагов — и от военных сил тоталитарного Вселенского Альянса, и от ужасных каннибалов Жнецов, команда корабля даже не догадывалась, какая угроза скрывается на борту «Серенити».

Страна: США
Продолжительность: 01:59:02
Перевод: Русский дублированный + Оригинальная, английская дорожка (отдельно)
Файл
Кодек: MKV, H.264
Качество: BDRip 720p (Source: Blu-ray Disc)
Видео: 4711 kbps; 0.282 bit/pixel; 1280 x 544; 2.35:1; 23.976 fps
Звук #1: AC3 Dolby Digital; 448.00 kbps, 6 Ch - DUB
Звук #2: AC3 Dolby Digital; 448.00 kbps, 6 Ch - ENG (отдельно / скачать с Яндекс Диск)
Субтитры: Русские, Английские.
Субтитры: Русские (полные (2 вида), комментарии), Английские (полные, SDH). (Отдельно)
Размер: 4.38 GB
SAMPLE / скачать с Яндекс Диск

MediaInfo

General
Complete name : Missiya.Sereniti.2005.RUS.BDRip.720p.h264.AC3.-HQ-ViDEO.mkv
Format : Matroska
File size : 4.38 GiB
Duration : 1h 59mn
Overall bit rate : 5 264 Kbps
Movie name : Serenity (2005)
Encoded date : UTC 2010-09-22 05:33:55
Writing application : mkvmerge v3.3.0 ('Language') built on Mar 24 2010 14:59:24
Writing library : libebml v0.8.0 + libmatroska v0.9.0
Video
ID : 1
Format : AVC
Format/Info : Advanced Video Codec
Format profile : High@L4.1
Format settings, CABAC : Yes
Format settings, ReFrames : 6 frames
Muxing mode : Container profile=Unknown@4.1
Codec ID : V_MPEG4/ISO/AVC
Duration : 1h 58mn
Bit rate : 4 711 Kbps
Width : 1 280 pixels
Height : 544 pixels
Display aspect ratio : 2.35:1
Frame rate : 23.976 fps
Resolution : 8 bits
Colorimetry : 4:2:0
Scan type : Progressive
Bits/(Pixel*Frame) : 0.282
Stream size : 3.91 GiB (89%)
Title : Encoded by GYN
Audio
ID : 2
Format : AC-3
Format/Info : Audio Coding 3
Codec ID : A_AC3
Duration : 1h 59mn
Bit rate mode : Constant
Bit rate : 448 Kbps
Channel(s) : 6 channels
Channel positions : Front: L C R, Surround: L R, LFE
Sampling rate : 48.0 KHz
Stream size : 381 MiB (9%)
Title : DUB
Language : Russian
Text #1
ID : 3
Format : UTF-8
Codec ID : S_TEXT/UTF8
Codec ID/Info : UTF-8 Plain Text
Title : Тусооn-Studiо
Language : Russian
Text #2
ID : 4
Format : UTF-8
Codec ID : S_TEXT/UTF8
Codec ID/Info : UTF-8 Plain Text
Language : English

Скриншоты

--
[Профиль] [ЛС]
Кто просматривает тему:

Форум Тема Автор Размер
Discovery Discovery: Миссия "Астероид" / Mission Asteroid (Jeff Thrasher) [2013 г., Документальный, научно-популярный, HDTVRip 720p] skorpionN 1.15 GB
National Geographic NG: Новые горизонты. Миссия: Плутон (Встреча с Плутоном) / New Horizons: Die Pluto Mission (Nic Young) [2014 г., Документальный, научно-познавательный, космос, HDTVRip 720p] skorpionN 1.09 GB
Фильмы (HD Rips | 720p, 1080p) Астерикс и Обеликс: Миссия Клеопатра / Astérix & Obélix: Mission Cléopâtre / (2002) BDRip 720p от NNNB | 60 fps sergej644 5.02 GB
Фильмы (HD Rips | 720p, 1080p) Безумные преподы: Миссия в Лондон / Les profs 2 (2015) BDRip 720p | L2 BOSS 4.49 GB
Фильмы 2015 года Безумные преподы: Миссия в Лондон / Les profs 2 (2015) HDRip | L2 BOSS 1.46 GB
Фильмы (HD Rips | 720p, 1080p) Доспехи Бога 3: Миссия Зодиак / Chinese Zodiac (2012) BDRip 1080p | D sergej644 7.76 GB
Фильмы (HD Rips | 720p, 1080p) Доспехи Бога 3: Миссия Зодиак / Chinese Zodiac (2012) BDRip 720p | D sergej644 4.37 GB
Фильмы 2012 года Доспехи Бога 3: Миссия Зодиак / Chinese Zodiac (2012) BDRip-AVC от potroks | D | Лицензия Russian Mafia 2.44 GB
Показать сообщения:    

Текущее время: Сегодня 10:54

Часовой пояс: GMT



Вы не можете начинать темы
Вы не можете отвечать на сообщения
Вы не можете редактировать свои сообщения
Вы не можете удалять свои сообщения
Вы не можете голосовать в опросах
Вы не можете прикреплять файлы к сообщениям
Вы не можете скачивать файлы