Миссия Сатурн. / Mission Saturn [сезон 1 серии 1- из ... ] (Shelley Ayres) [2017 г., Документальный, научно - познавательный, космос, DVB]

 
Автор Сообщение

skorpionN ®

Пол:

Стаж: 2 года 6 месяцев

Сообщений: 804



Награды: 4 (Подробнее)

Mega Seeder 3 (Количество: 1) Mega Seeder 2 (Количество: 1) Mega Seeder 1 (Количество: 1)
Торрент-статистика

Создавать темы 17-Сен-2017 11:56

[Цитировать]

Миссия Сатурн. / Mission Saturn [сезон 1 серии 1- из ... ]
Год выпуска: 2017
Страна: Канада, Exploration production Inc. in association with Discovery Channel and National Geographic
Жанр: Документальный, научно - познавательный, космос
Продолжительность: 00:46:59
Перевод: Профессиональный (одноголосый), студия Велес, текст читал - Олег Федоров
Режиссер: Shelley Ayres
Описание: На прекрасной планете Сатурн, более чем в миллиарде километров от Земли, космический аппарат стоимостью 3 млрд $, движется навстречу гибели. Это не авария, а жертва, призванная уберечь то, что позволила открыть эта миссия, включая спутник, на котором есть все необходимые для зарождения жизни компоненты. Мы не имеем права загрязнять мир, где может развиться жизнь на которую не влияло человечество. Это эффектное завершение уникальной программы позволившей столь близко изучить Сатурн. С его орбиты и внутри его колец. Впервые аппарат совершит посадку на планете в глубинах нашей Солнечной системы. Впервые осуществится мечта всех исследователей в самом экзотическом месте. Почти 20 лет космический аппарат «Кассини» (англ. Cassini orbiter) идеально выполнял свою задачу и добивался потрясающих научных результатов. Но теперь команда исследователей вынуждена его уничтожить. Закончился полет в один конец. Кассини прекратил свои исследования наиболее загадочной планеты в нашей солнечной системе. МИССИЯ САТУРН - завершена.
Список серий:
01. Внутри колец Сатурна / Inside the Rings
Качество: DVB
Формат: MPEG
Видео кодек: MPEG2
Аудио кодек: MPEG Audio
Видео: 720х576 (16:9) анаморфный (1024x576) 25fps ~2663 Kbps
Аудио 1: (Rus) MPEG Audio 2ch, 48kHz, 192 kbps
Аудио 2: (En) MPEG Audio 2ch, 48kHz, 192 kbps

Скриншоты


MediaInfo:

Format : MPEG-TS
File size : 1.05 GiB
Duration : 46 min 59 s
Overall bit rate mode : Variable
Overall bit rate : 3 210 kb/s
Video
ID : 213 (0xD5)
Menu ID : 813 (0x32D)
Format : MPEG Video
Format version : Version 2
Format profile : Main@Main
Format settings, BVOP : Yes
Format settings, Matrix : Custom
Format settings, GOP : M=3, N=15
Format settings, picture struc : Frame
Codec ID : 2
Duration : 46 min 59 s
Bit rate mode : Variable
Bit rate : 2 663 kb/s
Maximum bit rate : 9 800 kb/s
Width : 720 pixels
Height : 576 pixels
Display aspect ratio : 16:9
Frame rate : 25.000 FPS
Standard : PAL
Color space : YUV
Chroma subsampling : 4:2:0
Bit depth : 8 bits
Scan type : Interlaced
Scan order : Top Field First
Compression mode : Lossy
Bits/(Pixel*Frame) : 0.257
Time code of first frame : 00:00:00:00
Time code source : Group of pictures header
GOP, Open/Closed : Open
GOP, Open/Closed of first fram : Closed
Stream size : 895 MiB (83%)
Audio #1
ID : 313 (0x139)
Menu ID : 813 (0x32D)
Format : MPEG Audio
Format version : Version 1
Format profile : Layer 2
Codec ID : 3
Duration : 46 min 59 s
Bit rate mode : Constant
Bit rate : 192 kb/s
Channel(s) : 2 channels
Sampling rate : 48.0 kHz
Compression mode : Lossy
Stream size : 64.5 MiB (6%)
Language : Russian
Audio #2
ID : 314 (0x13A)
Menu ID : 813 (0x32D)
Format : MPEG Audio
Format version : Version 1
Format profile : Layer 2
Codec ID : 3
Duration : 46 min 59 s
Bit rate mode : Constant
Bit rate : 192 kb/s
Channel(s) : 2 channels
Sampling rate : 48.0 kHz
Compression mode : Lossy
Stream size : 64.5 MiB (6%)
Language : English

Внимание:

Раздача ведётся путём добавления новых серий; при каждом добавлении создаётся новый торрент. Чтобы начать докачку новой серии, пользователям необходимо сделать следующее:
- Остановить скачивание.
- Удалить старый торрент у себя из клиента (старые серии удалять не надо).
- Скачать новый торрент и запустить его у себя в клиенте вместо старого, при этом указать клиенту путь в старую папку куда и должно происходить скачивание новых серий.
Добавлено:
01. Внутри колец Сатурна / Inside the Rings
[Профиль] [ЛС]
Кто просматривает тему:

Форум Тема Автор Размер
Discovery Discovery: Миссия "Астероид" / Mission Asteroid (Jeff Thrasher) [2013 г., Документальный, научно-популярный, HDTVRip 720p] skorpionN 1.15 GB
National Geographic NG: Новые горизонты. Миссия: Плутон (Встреча с Плутоном) / New Horizons: Die Pluto Mission (Nic Young) [2014 г., Документальный, научно-познавательный, космос, HDTVRip 720p] skorpionN 1.09 GB
Фильмы (HD Rips | 720p, 1080p) Астерикс и Обеликс: Миссия Клеопатра / Astérix & Obélix: Mission Cléopâtre / (2002) BDRip 720p от NNNB | 60 fps sergej644 5.02 GB
Фильмы (HD Rips | 720p, 1080p) Безумные преподы: Миссия в Лондон / Les profs 2 (2015) BDRip 720p | L2 BOSS 4.49 GB
Фильмы 2015 года Безумные преподы: Миссия в Лондон / Les profs 2 (2015) HDRip | L2 BOSS 1.46 GB
Фильмы (HD Rips | 720p, 1080p) Доспехи Бога 3: Миссия Зодиак / Chinese Zodiac (2012) BDRip 1080p | D sergej644 7.76 GB
Фильмы (HD Rips | 720p, 1080p) Доспехи Бога 3: Миссия Зодиак / Chinese Zodiac (2012) BDRip 720p | D sergej644 4.37 GB
Фильмы 2012 года Доспехи Бога 3: Миссия Зодиак / Chinese Zodiac (2012) BDRip-AVC от potroks | D | Лицензия Russian Mafia 2.44 GB
Показать сообщения:    

Текущее время: Сегодня 17:19

Часовой пояс: GMT



Вы не можете начинать темы
Вы не можете отвечать на сообщения
Вы не можете редактировать свои сообщения
Вы не можете удалять свои сообщения
Вы не можете голосовать в опросах
Вы не можете прикреплять файлы к сообщениям
Вы не можете скачивать файлы