Миссия Плутон / Mission Pluto (Nic Young) [2015, космос, научно-популярный, HDTVRip]

 
Автор Сообщение

TorrentFilm ®

Пол:

Стаж: 2 года 6 месяцев

Сообщений: 7773



Награды: Нет

Торрент-статистика

Создавать темы 18-Июл-2015 00:06

[Цитировать]

Встреча с Плутоном / Mission Pluto
Дата/Год выпуска: 2015
Страна: США
Жанр: космос, научно-популярный
Продолжительность: 00:43:56
Перевод: Студийный (одноголосый закадровый)
Русские субтитры: нет
Оригинальная аудиодорожка: английский
Режиссер: Ник Янг / Nic Young
Сэмпл http://sendfile.su/1138157
Описание: После путешествия длиной в три миллиарда миль Космический зонд "Новые горизонты", отправленный к Плутону почти 10 лет назад, впервые передал на Землю уникальные снимки этой далекой планеты. В этой передачи мы узнаем о трудностях, которые пришлось преодолевать разработчикам проекта и перспективах в изучении последнего и самого далёкого объекта Солнечной системы - планетоида плутон.
качество: HDTVRip
формат: MKV
Видео: AVC/H.264, 1920x1080, ~25fps, ~5620 Kbps
Аудио: AC3, 6 ch, 448 kbps, 48 khz (Русский)
Аудио 2: AC3, 6 ch, 384 kbps, 48 khz (English)

MediaInfo

GeneralUnique ID : 180444349035128000539113312234274234809 (0x87C05148599181FD88895137582B21B9)Complete name : C:\Mission Pluto (2015) by Slavnus.mkvFormat : MatroskaFormat version : Version 4 / Version 2File size : 2.02 GiBDuration : 43mn 56sOverall bit rate : 6 582 KbpsMovie name : Mission Pluto - made by Slavnus SpacedustEncoded date : UTC 2015-07-16 05:08:00Writing application : mkvmerge v7.8.0 ('River Man') 32bit built on Mar 27 2015 16:18:02Writing library : libebml v1.3.1 + libmatroska v1.4.2DURATION : 00:43:55.776000000NUMBER_OF_FRAMES : 82368NUMBER_OF_BYTES : 126517248_STATISTICS_WRITING_APP : mkvmerge v7.8.0 ('River Man') 32bit built on Mar 27 2015 16:18:02_STATISTICS_WRITING_DATE_UT : 2015-07-16 05:08:00_STATISTICS_TAGS : BPS DURATION NUMBER_OF_FRAMES NUMBER_OF_BYTES
VideoID : 1Format : AVCFormat/Info : Advanced Video CodecFormat profile : High@L4Format settings, CABAC : YesFormat settings, ReFrames : 3 framesCodec ID : V_MPEG4/ISO/AVCDuration : 43mn 56sBit rate : 5 619 KbpsWidth : 1 920 pixelsHeight : 1 080 pixelsDisplay aspect ratio : 16:9Frame rate mode : ConstantFrame rate : 25.000 fpsStandard : ComponentColor space : YUVChroma subsampling : 4:2:0Bit depth : 8 bitsScan type : InterlacedScan order : Top Field FirstBits/(Pixel*Frame) : 0.108Stream size : 1.72 GiB (85%)Default : NoForced : NoColor range : LimitedColor primaries : BT.601 PALTransfer characteristics : BT.470 System B, BT.470 System GMatrix coefficients : BT.601
Audio #1ID : 2Format : AC-3Format/Info : Audio Coding 3Mode extension : CM (complete main)Format settings, Endianness : BigCodec ID : A_AC3Duration : 43mn 56sBit rate mode : ConstantBit rate : 448 KbpsChannel(s) : 6 channelsChannel positions : Front: L C R, Side: L R, LFESampling rate : 48.0 KHzCompression mode : LossyStream size : 141 MiB (7%)Language : RussianDefault : YesForced : Yes
Audio #2ID : 3Format : AC-3Format/Info : Audio Coding 3Mode extension : CM (complete main)Format settings, Endianness : BigCodec ID : A_AC3Duration : 43mn 56sBit rate mode : ConstantBit rate : 384 KbpsChannel(s) : 6 channelsChannel positions : Front: L C R, Side: L R, LFESampling rate : 48.0 KHzCompression mode : LossyStream size : 121 MiB (6%)Default : NoForced : No

Скриншоты

[Профиль] [ЛС]
Показать сообщения:    

Текущее время: Сегодня 00:30

Часовой пояс: GMT



Вы не можете начинать темы
Вы не можете отвечать на сообщения
Вы не можете редактировать свои сообщения
Вы не можете удалять свои сообщения
Вы не можете голосовать в опросах
Вы не можете прикреплять файлы к сообщениям
Вы не можете скачивать файлы