Миссия невыполнима: Племя изгоев / Mission: Impossible - Rogue Nation (2015) BDRip 1080p | Лицензия

 
Автор Сообщение

BOSS ®

Пол:

Стаж: 2 года 1 месяц

Сообщений: 3746

Откуда: ODESSA



Награды: 20 (Подробнее)

Top Seeder 4 (Количество: 1) Top Keeper 2 (Количество: 1) Mega Seeder 1 (Количество: 1)
Торрент-статистика

Создавать темы 20-Ноя-2015 21:09

[Цитировать]

Информация о фильме
Название: Миссия невыполнима: Племя изгоев
Оригинальное название: Mission: Impossible - Rogue Nation
Год выпуска: 2015
Жанр: Боевик, триллер, приключения
Выпущено: США, Paramount Pictures, Skydance Productions, Bad Robot
Режиссер: Кристофер МакКуорри
В ролях: Том Круз, Ребекка Фергюсон (II), Саймон Пегг, Джереми Реннер, Винг Рэймс, Шон Харрис, Алек Болдуин, Саймон МакБерни, Йенс Хультен, Том Холландер, Чжан Цзинчу, Матео Руфино, Фернандо Абади, Алек Утгофф, Гермиона Корфилд, Найджел Барбер, Уильям Робертс, Патрик Полетти, Мартин Кокрейн, Дэвид Пирт
О фильме: Правительство решает расформировать самый подготовленный и боеспособный отряд, предназначенный для выполнения миссий любой сложности и секретности - команду Итана "Миссия невыполнима". Однако в тоже время самому Итану удается обнаружить неизвестный и таинственный синдикат, о котором только ходили слухи. Как оказалось этот синдикат состоит из изгоев и таких же специалистов высокого класса, как и сама группа Итана. Поэтому наш герой собирается совершить последнюю миссию вместе со своей группой по ликвидации этого таинственного синдиката. В противном случае синдикат уничтожит Международный Валютный Фонд и мир погрузится в экономический хаос.

Файл
Качество: BDRip (1080p)
Видео: MPEG-4 AVC, 12407 Кбит/с, 1920x804, 23.976 кадр/с
Аудио: Русский (AC3, 6 ch, 640 Кбит/с), английский (DTS, 6 ch, 1509 Кбит/с)
Размер: 13.38 ГБ
Продолжительность: 02:11:33
Перевод: Дублированный
Субтитры: Русские, английские
Сохранены оригинальные чаптеры как на Blu-Ray.
Озвучивание - Дублированное (Лицензия)

x264

x264 [info]: frame I:1566 Avg QP:16.48 size:222786
x264 [info]: frame P:42092 Avg QP:18.49 size: 97353
x264 [info]: frame B:145603 Avg QP:20.65 size: 53541
x264 [info]: consecutive B-frames: 3.0% 3.5% 9.6% 13.0% 13.7% 47.3% 5.5% 1.6% 1.3% 1.6%
x264 [info]: mb I I16..4: 6.5% 86.8% 6.7%
x264 [info]: mb P I16..4: 1.2% 33.1% 1.1% P16..4: 24.2% 27.4% 6.0% 1.4% 0.1% skip: 5.5%
x264 [info]: mb B I16..4: 0.2% 6.9% 0.1% B16..8: 38.4% 20.8% 3.3% direct: 8.2% skip:22.1% L0:45.7% L1:44.1% BI:10.1%
x264 [info]: 8x8 transform intra:93.9% inter:66.7%
x264 [info]: direct mvs spatial:98.5% temporal:1.5%
x264 [info]: coded y,uvDC,uvAC intra: 93.7% 90.6% 78.4% inter: 40.9% 39.3% 16.9%
x264 [info]: i16 v,h,dc,p: 36% 16% 11% 36%
x264 [info]: i8 v,h,dc,ddl,ddr,vr,hd,vl,hu: 9% 8% 14% 9% 12% 11% 12% 11% 14%
x264 [info]: i4 v,h,dc,ddl,ddr,vr,hd,vl,hu: 33% 11% 10% 6% 9% 8% 9% 6% 8%
x264 [info]: i8c dc,h,v,p: 55% 15% 14% 17%
x264 [info]: Weighted P-Frames: Y:11.0% UV:7.6%
x264 [info]: ref P L0: 44.4% 7.7% 26.0% 10.5% 9.6% 1.5% 0.2%
x264 [info]: ref B L0: 70.5% 20.8% 6.8% 1.9%
x264 [info]: ref B L1: 89.7% 10.3%
x264 [info]: kb/s:12407.16

Инфо-файл

Общее
Уникальный идентификатор : 242975662839846989615350217136296546879 (0xB6CB69155A2E8E85A9DA4C835A91D23F)
Полное имя : D:ЗагрузкиMission.Impossible.Rogue.Nation.2015.x264.BDRip.(1080p).ExKinoRay.mkv
Формат : Matroska
Версия формата : Version 2
Размер файла : 13,4 Гбайт
Продолжительность : 2 ч. 11 м.
Общий поток : 14,6 Мбит/сек
Название фильма : Миссия невыполнима: Племя изгоев.2015.Rip by: ollan
Дата кодирования : UTC 2015-11-20 20:38:56
Программа кодирования : mkvmerge v5.6.0 ('Kenya Kane') built on May 27 2012 16:44:04
Библиотека кодирования : libebml v1.2.3 + libmatroska v1.3.0
Видео
Идентификатор : 1
Формат : AVC
Формат/Информация : Advanced Video Codec
Профиль формата : High@L4.1
Параметр CABAC формата : Да
Параметр ReFrames формата : 5 кадров
Идентификатор кодека : V_MPEG4/ISO/AVC
Продолжительность : 2 ч. 11 м.
Битрейт : 12,4 Мбит/сек
Ширина : 1920 пикселей
Высота : 804 пикселя
Соотношение сторон : 2,40:1
Режим частоты кадров : Постоянный
Частота кадров : 23,976 кадра/сек
Цветовое пространство : YUV
Субдискретизация насыщенности : 4:2:0
Битовая глубина : 8 бит
Тип развёртки : Прогрессивная
Бит/(Пиксели*Кадры) : 0.335
Размер потока : 11,1 Гбайт (83%)
Библиотека кодирования : x264 core 125 r2200 999b753
Настройки программы : cabac=1 / ref=5 / deblock=1:-3:-3 / analyse=0x3:0x133 / me=umh / subme=11 / psy=1 / psy_rd=1.00:0.10 / mixed_ref=1 / me_range=48 / chroma_me=1 / trellis=2 / 8x8dct=1 / cqm=0 / deadzone=21,11 / fast_pskip=0 / chroma_qp_offset=-3 / threads=12 / lookahead_threads=2 / sliced_threads=0 / nr=0 / decimate=0 / interlaced=0 / bluray_compat=0 / constrained_intra=0 / bframes=9 / b_pyramid=2 / b_adapt=2 / b_bias=0 / direct=3 / weightb=1 / open_gop=0 / weightp=2 / keyint=240 / keyint_min=23 / scenecut=40 / intra_refresh=0 / rc=2pass / mbtree=0 / bitrate=12407 / ratetol=1.0 / qcomp=0.60 / qpmin=0 / qpmax=69 / qpstep=4 / cplxblur=20.0 / qblur=0.5 / ip_ratio=1.40 / pb_ratio=1.30 / aq=1:1.00
Язык : English
Default : Да
Forced : Нет
Аудио #1
Идентификатор : 2
Формат : AC-3
Формат/Информация : Audio Coding 3
Расширение режима : CM (complete main)
Параметр Endianness формата : Big
Идентификатор кодека : A_AC3
Продолжительность : 2 ч. 11 м.
Вид битрейта : Постоянный
Битрейт : 640 Кбит/сек
Каналы : 6 каналов
Расположение каналов : Front: L C R, Side: L R, LFE
Частота : 48,0 КГц
Битовая глубина : 16 бит
Метод сжатия : С потерями
Размер потока : 602 Мбайт (4%)
Заголовок : Дублированный (Лицензия)
Язык : Russian
Default : Да
Forced : Нет
Аудио #2
Идентификатор : 3
Формат : DTS
Формат/Информация : Digital Theater Systems
Режим : 16
Параметр Endianness формата : Big
Идентификатор кодека : A_DTS
Продолжительность : 2 ч. 11 м.
Вид битрейта : Постоянный
Битрейт : 1509 Кбит/сек
Каналы : 6 каналов
Расположение каналов : Front: L C R, Side: L R, LFE
Частота : 48,0 КГц
Битовая глубина : 24 бит
Метод сжатия : С потерями
Размер потока : 1,39 Гбайт (10%)
Язык : English
Default : Нет
Forced : Нет
Текст #1
Идентификатор : 4
Формат : UTF-8
Идентификатор кодека : S_TEXT/UTF8
Идентификатор кодека/Информация : UTF-8 Plain Text
Заголовок : Forced
Язык : Russian
Default : Да
Forced : Нет
Текст #2
Идентификатор : 5
Формат : UTF-8
Идентификатор кодека : S_TEXT/UTF8
Идентификатор кодека/Информация : UTF-8 Plain Text
Заголовок : Full
Язык : Russian
Default : Нет
Forced : Нет
Текст #3
Идентификатор : 6
Формат : UTF-8
Идентификатор кодека : S_TEXT/UTF8
Идентификатор кодека/Информация : UTF-8 Plain Text
Заголовок : Forced
Язык : English
Default : Нет
Forced : Нет
Текст #4
Идентификатор : 7
Формат : UTF-8
Идентификатор кодека : S_TEXT/UTF8
Идентификатор кодека/Информация : UTF-8 Plain Text
Заголовок : Full
Язык : English
Default : Нет
Forced : Нет
Меню
00:00:00.000 : en:Chapter 01
00:09:53.092 : en:Chapter 02
00:20:45.702 : en:Chapter 03
00:25:32.072 : en:Chapter 04
00:32:00.668 : en:Chapter 05
00:40:03.442 : en:Chapter 06
00:49:35.555 : en:Chapter 07
01:01:01.157 : en:Chapter 08
01:09:51.687 : en:Chapter 09
01:20:20.857 : en:Chapter 10
01:29:29.322 : en:Chapter 11
01:38:32.823 : en:Chapter 12
01:48:19.409 : en:Chapter 13
01:57:13.943 : en:Chapter 14
02:03:02.708 : en:Chapter 15
02:11:33.510 : en:Chapter 16

Скриншоты



[Профиль] [ЛС]
Кто просматривает тему:

Форум Тема Автор Размер
Discovery Discovery: Миссия "Астероид" / Mission Asteroid (Jeff Thrasher) [2013 г., Документальный, научно-популярный, HDTVRip 720p] skorpionN 1.15 GB
National Geographic NG: Новые горизонты. Миссия: Плутон (Встреча с Плутоном) / New Horizons: Die Pluto Mission (Nic Young) [2014 г., Документальный, научно-познавательный, космос, HDTVRip 720p] skorpionN 1.09 GB
Фильмы (HD Rips | 720p, 1080p) Астерикс и Обеликс: Миссия Клеопатра / Astérix & Obélix: Mission Cléopâtre / (2002) BDRip 720p от NNNB | 60 fps sergej644 5.02 GB
Фильмы (HD Rips | 720p, 1080p) Безумные преподы: Миссия в Лондон / Les profs 2 (2015) BDRip 720p | L2 BOSS 4.49 GB
Фильмы 2015 года Безумные преподы: Миссия в Лондон / Les profs 2 (2015) HDRip | L2 BOSS 1.46 GB
Фильмы (HD Rips | 720p, 1080p) Доспехи Бога 3: Миссия Зодиак / Chinese Zodiac (2012) BDRip 1080p | D sergej644 7.76 GB
Фильмы (HD Rips | 720p, 1080p) Доспехи Бога 3: Миссия Зодиак / Chinese Zodiac (2012) BDRip 720p | D sergej644 4.37 GB
Фильмы 2012 года Доспехи Бога 3: Миссия Зодиак / Chinese Zodiac (2012) BDRip-AVC от potroks | D | Лицензия Russian Mafia 2.44 GB
Показать сообщения:    

Текущее время: Сегодня 21:34

Часовой пояс: GMT



Вы не можете начинать темы
Вы не можете отвечать на сообщения
Вы не можете редактировать свои сообщения
Вы не можете удалять свои сообщения
Вы не можете голосовать в опросах
Вы не можете прикреплять файлы к сообщениям
Вы не можете скачивать файлы