Миссия невыполнима: Племя изгоев / Mission: Impossible - Rogue Nation (Кристофер МакКуорри / Christopher McQuarrie) [2015, США, Гонконг, Китай, боевик, триллер, приключения, HDRip] Dub (iTunes) + Sub Rus

 
Автор Сообщение

TorrentFilm ®

Пол:

Стаж: 1 год 11 месяцев

Сообщений: 7741



Награды: Нет

Торрент-статистика

Создавать темы 10-Ноя-2015 00:08

[Цитировать]

Миссия невыполнима: Племя изгоев / Mission: Impossible - Rogue Nation
Страна: США, Гонконг, Китай
Жанр: боевик, триллер, приключения
Год выпуска: 2015
Продолжительность: 02:11:33
Перевод: Профессиональный (дублированный) iTunes
Cубтитры: русские (внешние на места с другим наречием)
Оригинальная аудиодорожка: нет
Режиссер: Кристофер МакКуорри / Christopher McQuarrie
В ролях: Том Круз, Ребекка Фергюсон, Саймон Пегг, Джереми Реннер, Винг Рэймс, Шон Харрис, Алек Болдуин, Саймон МакБерни, Йенс Хультен, Том Холландер, Чжан Цзинчу, Матео Руфино, Фернандо Абади, Алек Утгофф, Гермиона Корфилд, Найджел Барбер, Уильям Робертс, Патрик Полетти, Мартин Кокрейн, Дэвид Пирт
Описание: Правительство решает расформировать самый подготовленный и боеспособный отряд, предназначенный для выполнения миссий любой сложности и секретности - команду Итана "Миссия невыполнима". Однако в тоже время самому Итану удается обнаружить неизвестный и таинственный синдикат, о котором только ходили слухи. Как оказалось этот синдикат состоит из изгоев и таких же специалистов высокого класса, как и сама группа Итана. Поэтому наш герой собирается совершить последнюю миссию вместе со своей группой по ликвидации этого таинственного синдиката. В противном случае синдикат уничтожит Международный Валютный Фонд и мир погрузится в экономический хаос.
Сэмпл: http://multi-up.com/1074076
Качество видео: HDRip (исходник не известен)
Формат видео: AVI
Видео: Xvid 720x304 23.98fps 1 976 Kbps
Аудио: Dolby AC3 48000Hz 6ch 384kbps

MediaInfo

Format : AVI
Format/Info : Audio Video Interleave
Format profile : OpenDML
File size : 2.18 GiB
Duration : 2h 11mn
Overall bit rate : 2 372 Kbps
Writing application : VirtualDubMod 1.5.10.2 (build 2540/release)
Writing library : VirtualDubMod build 2540/release
Video
ID : 0
Format : MPEG-4 Visual
Format profile : AdvancedSimple@L5
Format settings, BVOP : Yes
Format settings, QPel : No
Format settings, GMC : No warppoints
Format settings, Matrix : Default (MPEG)
Codec ID : XVID
Codec ID/Hint : XviD
Duration : 2h 11mn
Bit rate : 1 976 Kbps
Width : 720 pixels
Height : 304 pixels
Display aspect ratio : 2.35:1
Frame rate : 23.976 fps
Resolution : 24 bits
Colorimetry : 4:2:0
Scan type : Progressive
Bits/(Pixel*Frame) : 0.376
Stream size : 1.82 GiB (83%)
Writing library : XviD 1.2.1 (UTC 2008-12-04)
Audio
ID : 1
Format : AC-3
Format/Info : Audio Coding 3
Codec ID : 2000
Duration : 2h 11mn
Bit rate mode : Constant
Bit rate : 384 Kbps
Channel(s) : 6 channels
Channel positions : Front: L C R, Surround: L R, LFE
Sampling rate : 48.0 KHz
Stream size : 361 MiB (16%)
Alignment : Split accross interleaves
Interleave, duration : 42 ms (1.00 video frame)
Interleave, preload duration : 500 ms

Скриншот c названием фильма

Скриншоты

Сравнение

Вот с этим http://torrentfilm.net/forum/viewtopic.php?t=5095171 вот здесь http://screenshotcomparison.com/comparison/149255
+ внешние русские субтитры на места с другим наречием
Здесь http://torrentfilm.net/forum/viewtopic.php?t=5109764 автор предложил удаление
[Профиль] [ЛС]
Кто просматривает тему:

Форум Тема Автор Размер
Discovery Discovery: Миссия "Астероид" / Mission Asteroid (Jeff Thrasher) [2013 г., Документальный, научно-популярный, HDTVRip 720p] skorpionN 1.15 GB
National Geographic NG: Новые горизонты. Миссия: Плутон (Встреча с Плутоном) / New Horizons: Die Pluto Mission (Nic Young) [2014 г., Документальный, научно-познавательный, космос, HDTVRip 720p] skorpionN 1.09 GB
Фильмы (HD Rips | 720p, 1080p) Астерикс и Обеликс: Миссия Клеопатра / Astérix & Obélix: Mission Cléopâtre / (2002) BDRip 720p от NNNB | 60 fps sergej644 5.02 GB
Фильмы (HD Rips | 720p, 1080p) Безумные преподы: Миссия в Лондон / Les profs 2 (2015) BDRip 720p | L2 BOSS 4.49 GB
Фильмы 2015 года Безумные преподы: Миссия в Лондон / Les profs 2 (2015) HDRip | L2 BOSS 1.46 GB
Фильмы (HD Rips | 720p, 1080p) Доспехи Бога 3: Миссия Зодиак / Chinese Zodiac (2012) BDRip 1080p | D sergej644 7.76 GB
Фильмы (HD Rips | 720p, 1080p) Доспехи Бога 3: Миссия Зодиак / Chinese Zodiac (2012) BDRip 720p | D sergej644 4.37 GB
Фильмы 2012 года Доспехи Бога 3: Миссия Зодиак / Chinese Zodiac (2012) BDRip-AVC от potroks | D | Лицензия Russian Mafia 2.44 GB
Показать сообщения:    

Текущее время: Сегодня 18:18

Часовой пояс: GMT



Вы не можете начинать темы
Вы не можете отвечать на сообщения
Вы не можете редактировать свои сообщения
Вы не можете удалять свои сообщения
Вы не можете голосовать в опросах
Вы не можете прикреплять файлы к сообщениям
Вы не можете скачивать файлы