Миссия невыполнима: Племя изгоев / Mission: Impossible - Rogue Nation (Кристофер МакКуорри / Christopher McQuarrie) [2015, США, Гонконг, Китай, боевик, триллер, приключения, BDRip-AVC] Dub + Original (Eng) + Sub (Rus, Eng)

 
Автор Сообщение

TorrentFilm ®

Пол:

Стаж: 2 года

Сообщений: 7741



Награды: Нет

Торрент-статистика

Создавать темы 08-Ноя-2015 00:08

[Цитировать]

Миссия невыполнима: Племя изгоев
Mission: Impossible - Rogue Nation
«Go rogue»


Страна: США, Гонконг, Китай
Жанр: боевик, триллер, приключения
Год выпуска: 2015
Продолжительность: 02:11:33
Перевод: Профессиональный (полное дублирование) [Лицензия iTunes]
Субтитры: Русские (форсированные, полные), Английские (форсированные, полные)
Оригинальная аудиодорожка: Английский
Режиссер: Кристофер МакКуорри / Christopher McQuarrie
В ролях: Том Круз, Ребекка Фергюсон, Саймон Пегг, Джереми Реннер, Винг Реймз, Шон Харрис, Алек Болдуин, Саймон МакБерни, Йенс Хультен, Том Холландер, Чжан Цзинчу, Матео Руфино
Описание:
Когда ОМН распускают, и Итан Хант остается не у дел, его команда неожиданно сталкивается с разветвленной международной сетью высокопрофессиональных спецагентов - Синдикатом. Это «племя изгоев» одержимо идеей установления нового мирового порядка и планирует серию разрушительных терактов. Итан и компания объединяются с дискредитированным британским агентом Ильзой Фауст и приступают к своей самой невыполнимой миссии...

Релиз:
Автор рипа: Stalker oK
Сэмпл
Качество видео: BDRip-AVC [Blu-ray Remux 1080p HDCLUB]
Формат видео: MKV
Видео кодек: AVC
Аудио кодек: AC3
Видео: 1476 Кбит/сек, 960x402 (2.35:1), 23,976 кадр/сек, AVC
Аудио №1: русский, 384 Кбит/сек, 48 КГц, 16 бит, 5.1, AC3
Аудио №2: английский, 448 Кбит/сек, 48 КГц, 16 бит, 5.1, AC3
Навигация по главам: есть

MediaInfo

General
Unique ID : 243465622046517970748117697287604697548 (0xB729C5EFF70AA785B497B913322479CC)
Complete name : N:\Rips\MISSION_IMPOSSIBLE_ROGUE_NATION\Mission.Impossible.Rogue.Nation.2015.BDRip-AVC.Dub.2.18Gb...stalkerok.new-team.mkv
Format : Matroska
File size : 2.11 GiB
Duration : 2h 11mn
Overall bit rate : 2 293 Kbps
Movie name : Mission: Impossible - Rogue Nation (2015) (New-Team) (Rip by Stalker oK)
Encoded date : UTC 2015-11-03 14:36:16
Writing application : mkvmerge v7.9.0 ('Birds') 64bit
Writing library : libebml v1.3.1 + libmatroska v1.4.2
Video
ID : 1
Format : AVC
Format/Info : Advanced Video Codec
Format profile : High@L4.1
Format settings, CABAC : Yes
Format settings, ReFrames : 12 frames
Format settings, GOP : M=14, N=44
Codec ID : V_MPEG4/ISO/AVC
Duration : 2h 11mn
Bit rate : 1 476 Kbps
Width : 960 pixels
Height : 402 pixels
Display aspect ratio : 2.35:1
Frame rate : 23.976 fps
Color space : YUV
Chroma subsampling : 4:2:0
Bit depth : 8 bits
Scan type : Progressive
Bits/(Pixel*Frame) : 0.160
Stream size : 1.30 GiB (62%)
Title : Mission: Impossible - Rogue Nation (2015) (New-Team) (Rip by Stalker oK)
Writing library : x264 core 146 r2538kMod 121396c
Encoding settings : cabac=1 / ref=12 / deblock=1:-3:-3 / analyse=0x3:0x133 / me=umh / subme=11 / psy=1 / fade_compensate=0.00 / psy_rd=1.00:0.10 / mixed_ref=1 / me_range=48 / chroma_me=1 / trellis=2 / 8x8dct=1 / cqm=0 / deadzone=21,11 / fast_pskip=0 / chroma_qp_offset=-3 / threads=12 / lookahead_threads=3 / sliced_threads=0 / nr=0 / decimate=0 / interlaced=0 / bluray_compat=0 / constrained_intra=0 / fgo=0 / bframes=13 / b_pyramid=2 / b_adapt=2 / b_bias=0 / direct=3 / weightb=1 / open_gop=0 / weightp=2 / keyint=240 / keyint_min=23 / scenecut=40 / intra_refresh=0 / rc_lookahead=60 / rc=2pass / mbtree=0 / bitrate=1476 / ratetol=1.0 / qcomp=0.70 / qpmin=0 / qpmax=69 / qpstep=4 / cplxblur=20.0 / qblur=0.5 / vbv_maxrate=50000 / vbv_bufsize=62500 / nal_hrd=none / filler=0 / ip_ratio=1.40 / pb_ratio=1.30 / aq=3:0.90
Audio #1
ID : 2
Format : AC-3
Format/Info : Audio Coding 3
Mode extension : CM (complete main)
Codec ID : A_AC3
Duration : 2h 11mn
Bit rate mode : Constant
Bit rate : 384 Kbps
Channel(s) : 6 channels
Channel positions : Front: L C R, Side: L R, LFE
Sampling rate : 48.0 KHz
Bit depth : 16 bits
Compression mode : Lossy
Stream size : 361 MiB (17%)
Language : Russian
Audio #2
ID : 3
Format : AC-3
Format/Info : Audio Coding 3
Mode extension : CM (complete main)
Codec ID : A_AC3
Duration : 2h 11mn
Bit rate mode : Constant
Bit rate : 448 Kbps
Channel(s) : 6 channels
Channel positions : Front: L C R, Side: L R, LFE
Sampling rate : 48.0 KHz
Bit depth : 16 bits
Compression mode : Lossy
Stream size : 422 MiB (20%)
Language : English
Text #1
ID : 4
Format : UTF-8
Codec ID : S_TEXT/UTF8
Codec ID/Info : UTF-8 Plain Text
Title : Forced
Language : Russian
Text #2
ID : 5
Format : UTF-8
Codec ID : S_TEXT/UTF8
Codec ID/Info : UTF-8 Plain Text
Title : Full
Language : Russian
Text #3
ID : 6
Format : UTF-8
Codec ID : S_TEXT/UTF8
Codec ID/Info : UTF-8 Plain Text
Title : Forced
Language : English
Text #4
ID : 7
Format : UTF-8
Codec ID : S_TEXT/UTF8
Codec ID/Info : UTF-8 Plain Text
Language : English
Menu
00:00:00.000 : en:Chapter 1
00:09:53.091 : en:Chapter 2
00:20:45.701 : en:Chapter 3
00:25:32.071 : en:Chapter 4
00:32:00.667 : en:Chapter 5
00:40:03.442 : en:Chapter 6
00:49:35.554 : en:Chapter 7
01:01:01.157 : en:Chapter 8
01:09:51.686 : en:Chapter 9
01:20:20.856 : en:Chapter 10
01:29:29.322 : en:Chapter 11
01:38:32.823 : en:Chapter 12
01:48:19.408 : en:Chapter 13
01:57:13.943 : en:Chapter 14
02:03:02.707 : en:Chapter 15

Скриншоты

[Профиль] [ЛС]
Кто просматривает тему:

Форум Тема Автор Размер
Discovery Discovery: Миссия "Астероид" / Mission Asteroid (Jeff Thrasher) [2013 г., Документальный, научно-популярный, HDTVRip 720p] skorpionN 1.15 GB
National Geographic NG: Новые горизонты. Миссия: Плутон (Встреча с Плутоном) / New Horizons: Die Pluto Mission (Nic Young) [2014 г., Документальный, научно-познавательный, космос, HDTVRip 720p] skorpionN 1.09 GB
Фильмы (HD Rips | 720p, 1080p) Астерикс и Обеликс: Миссия Клеопатра / Astérix & Obélix: Mission Cléopâtre / (2002) BDRip 720p от NNNB | 60 fps sergej644 5.02 GB
Фильмы (HD Rips | 720p, 1080p) Безумные преподы: Миссия в Лондон / Les profs 2 (2015) BDRip 720p | L2 BOSS 4.49 GB
Фильмы 2015 года Безумные преподы: Миссия в Лондон / Les profs 2 (2015) HDRip | L2 BOSS 1.46 GB
Фильмы (HD Rips | 720p, 1080p) Доспехи Бога 3: Миссия Зодиак / Chinese Zodiac (2012) BDRip 1080p | D sergej644 7.76 GB
Фильмы (HD Rips | 720p, 1080p) Доспехи Бога 3: Миссия Зодиак / Chinese Zodiac (2012) BDRip 720p | D sergej644 4.37 GB
Фильмы 2012 года Доспехи Бога 3: Миссия Зодиак / Chinese Zodiac (2012) BDRip-AVC от potroks | D | Лицензия Russian Mafia 2.44 GB
Показать сообщения:    

Текущее время: Сегодня 02:14

Часовой пояс: GMT



Вы не можете начинать темы
Вы не можете отвечать на сообщения
Вы не можете редактировать свои сообщения
Вы не можете удалять свои сообщения
Вы не можете голосовать в опросах
Вы не можете прикреплять файлы к сообщениям
Вы не можете скачивать файлы