Миссия невыполнима: Племя изгоев / Mission: Impossible - Rogue Nation (Кристофер МакКуорри / Christopher McQuarrie) [2015, США, Боевик, триллер, приключения, BDRip] Dub (iTunes)

 
Автор Сообщение

TorrentFilm ®

Пол:

Стаж: 2 года

Сообщений: 7741



Награды: Нет

Торрент-статистика

Создавать темы 04-Ноя-2015 00:09

[Цитировать]

Миссия невыполнима: Племя изгоев / Mission: Impossible - Rogue Nation- Год выпуска: 2015
Выпущено: США, Гонконг, Китай / Alibaba Pictures Group
Жанр: боевик, триллер, приключения
Продолжительность: 02:11:33
Перевод: Профессиональный (полное дублирование)
Cубтитры: нет-Режиссер:
Кристофер МакКуорри / Christopher McQuarrie-В ролях:
Том Круз (Ethan Hunt), Ребекка Фергюсон (Ilsa Faust), Саймон Пегг (Benji Dunn), Джереми Реннер (William Brandt), Винг Реймз (Luther Stickell), Шон Харрис (Solomon Lane), Алек Болдуин (Alan Hunley), Саймон МакБерни (Atlee), Йенс Хультен (Janik Vinter), Том Холландер (Prime Minister)-Описание:
Когда ОМН распускают, и Итан Хант остается не у дел, его команда неожиданно сталкивается с разветвленной международной сетью высокопрофессиональных спецагентов — Синдикатом. Это «племя изгоев» одержимо идеей установления нового мирового порядка и планирует серию разрушительных терактов. Итан и компания объединяются с дискредитированным британским агентом Ильзой Фауст и приступают к своей самой невыполнимой миссии...-Релиз групп | | IMDB | КиноПоиск | Сэмпл |-Качество: BDRip [Mission.Impossible.Rogue.Nation.2015.1080p.BluRay.AVC.TrueHD.7.1.Atmos-RARBG]
Формат: AVI
Видео: 720x304 (2.37:1), 23.976 fps, XviD build 67 ~1203 kbps avg, 0.23 bit/pixel
Аудио: 48 kHz, AC3 Dolby Digital, 3/2 (L,C,R,l,r) + LFE ch, ~384.00 kbps avg - iTunes Russia
-

Скриншоты

MediaInfo

General
Complete name                            : D:\Missiya_nevypolnima_Plemya_izgoev_2015_BDRip_iT_by_Dalemake.avi
Format                                   : AVI
Format/Info                              : Audio Video Interleave
File size                                : 1.47 GiB
Duration                                 : 2h 11mn
Overall bit rate                         : 1 597 Kbps
Writing application                      : VirtualDubMod 1.5.10.3 | www.virtualdub-fr.org || (build 2550/release)
Writing library                          : VirtualDubMod build 2550/release
Video
ID                                       : 0
Format                                   : MPEG-4 Visual
Format profile                           : Advanced Simple@L5
Format settings, BVOP                    : 1
Format settings, QPel                    : No
Format settings, GMC                     : No warppoints
Format settings, Matrix                  : Custom
Codec ID                                 : XVID
Codec ID/Hint                            : XviD
Duration                                 : 2h 11mn
Bit rate                                 : 1 203 Kbps
Width                                    : 720 pixels
Height                                   : 304 pixels
Display aspect ratio                     : 2.35:1
Frame rate                               : 23.976 fps
Color space                              : YUV
Chroma subsampling                       : 4:2:0
Bit depth                                : 8 bits
Scan type                                : Progressive
Compression mode                         : Lossy
Bits/(Pixel*Frame)                       : 0.229
Stream size                              : 1.11 GiB (75%)
Writing library                          : XviD 67
Audio
ID                                       : 1
Format                                   : AC-3
Format/Info                              : Audio Coding 3
Mode extension                           : CM (complete main)
Format settings, Endianness              : Big
Codec ID                                 : 2000
Duration                                 : 2h 11mn
Bit rate mode                            : Constant
Bit rate                                 : 384 Kbps
Channel(s)                               : 6 channels
Channel positions                        : Front: L C R, Side: L R, LFE
Sampling rate                            : 48.0 KHz
Bit depth                                : 16 bits
Compression mode                         : Lossy
Stream size                              : 361 MiB (24%)
Alignment                                : Split accross interleaves
Interleave, duration                     : 42 ms (1.00 video frame)
Interleave, preload duration             : 500 ms
-
[Профиль] [ЛС]
Кто просматривает тему:

Форум Тема Автор Размер
Discovery Discovery: Миссия "Астероид" / Mission Asteroid (Jeff Thrasher) [2013 г., Документальный, научно-популярный, HDTVRip 720p] skorpionN 1.15 GB
National Geographic NG: Новые горизонты. Миссия: Плутон (Встреча с Плутоном) / New Horizons: Die Pluto Mission (Nic Young) [2014 г., Документальный, научно-познавательный, космос, HDTVRip 720p] skorpionN 1.09 GB
Фильмы (HD Rips | 720p, 1080p) Астерикс и Обеликс: Миссия Клеопатра / Astérix & Obélix: Mission Cléopâtre / (2002) BDRip 720p от NNNB | 60 fps sergej644 5.02 GB
Фильмы (HD Rips | 720p, 1080p) Безумные преподы: Миссия в Лондон / Les profs 2 (2015) BDRip 720p | L2 BOSS 4.49 GB
Фильмы 2015 года Безумные преподы: Миссия в Лондон / Les profs 2 (2015) HDRip | L2 BOSS 1.46 GB
Фильмы (HD Rips | 720p, 1080p) Доспехи Бога 3: Миссия Зодиак / Chinese Zodiac (2012) BDRip 1080p | D sergej644 7.76 GB
Фильмы (HD Rips | 720p, 1080p) Доспехи Бога 3: Миссия Зодиак / Chinese Zodiac (2012) BDRip 720p | D sergej644 4.37 GB
Фильмы 2012 года Доспехи Бога 3: Миссия Зодиак / Chinese Zodiac (2012) BDRip-AVC от potroks | D | Лицензия Russian Mafia 2.44 GB
Показать сообщения:    

Текущее время: Сегодня 16:37

Часовой пояс: GMT



Вы не можете начинать темы
Вы не можете отвечать на сообщения
Вы не можете редактировать свои сообщения
Вы не можете удалять свои сообщения
Вы не можете голосовать в опросах
Вы не можете прикреплять файлы к сообщениям
Вы не можете скачивать файлы