Мир Юрского периода / Jurassic World (Колин Треворроу) [2015, Фантастика, приключения, боевик , BD-Remux 1080p] [DD5.1] [Dub Rus , Eng]+[Sub Rus , Ukr , Eng]

 
Автор Сообщение

Враг Нароода ®

Стаж: 1 год 8 месяцев

Сообщений: 109



Награды: 2 (Подробнее)

Mega Seeder 1 (Количество: 1) За внесенный вклад в развитие сайта (Количество: 1)
Торрент-статистика

Создавать темы 06-Дек-2015 11:57

[Цитировать]

--Мир Юрского периода / Jurassic World-- --Год выпуска: 2015
Выпущено: США, Universal Pictures, Legendary Pictures, China Film Co., Amblin Entertainment
Жанр: Фантастика, приключения, боевик
Продолжительность: 02:04:21
Озвучка # 1 :Русский : - [Дубляж, Лицензия ]
Озвучка # 2 :Русский : - Авторский одноголосый Авторский - А.Гаврилов

Озвучка # 3 :Английский : - Оригинал
Субтитры: Russian , English , Ukrainian -- --Режиссер: Колин Треворроу--В ролях: Крис Прэтт, Брайс Даллас Ховард, Ник Дж. Робинсон, Тай Симпкинс, Винсент Д`Онофрио, Ирфан Кхан, Омар Си, Б. Д. Вонг, Джейк Джонсон, Джуди Грир, Кэти МакГрат, Лорен Лапкус, Брайан Ти, Энди Бакли, Эрик Эдельштейн, Кортни Дж. Кларк, Колби Бутман-Шепарт, Джимми Фэллон, Джеймс ДюМонт, Мэттью Бурк-- Приключенческий фильм вновь вернёт нас на остров Айла Нублар, успевший стать популярным парком развлечений, ежегодно посещаемым миллионами туристов. Когда-то опасных динозавров приручили, и теперь громадные рептилии всего лишь часть шоу для развлечения посетителей. Так, вместо дельфина здесь огромный динозавр, которого угощают во время представления акулами вместо мелкой рыбы. Однако всё не так безоблачно, как может показаться на первый взгляд. Фантастический фильм на этот раз столкнёт человека с гораздо более умной тварью, чем он мог себе представить. Воцаряется хаос, и ещё неизвестно, какая из сторон в итоге одержит победу. Наверное, просто невозможно найти в наше время кинолюбителя, ни разу, не слышавшего о нашумевшей в своё время фантастической франшизе Мир Юрского периода. Так что неудивительно, что когда в Голливуде заявили о новом проекте Jurassic World (2015), повествующем о противостоянии людей и динозавров, среди поклонников зажегся неслабый интерес. Долгое время было неизвестно, планируют ли создатели ремейк нашумевшего в девяностые фильма или же собираются снять продолжение. Однако сейчас уже вполне ясно, что авторы задумали показать нам совершенно новый сюжет.-- --Качество : BD-Remux (1080p)
Формат: MKV
Видео кодек: H264
Видео: 24,7Мбит/сек,1920х1080(16/9),в23.976кадр/сек,AVC(High@L4.1)(CABAC/4Ref Frames)
Аудио Кодек:AC3
Аудио #1:AC3 , 640 Kbps, 48.0 KHz, 6 ch- -Русский - [ Дубляж]
Аудио #2:AC3 , 640 Kbps, 48.0 KHz, 6 ch- -Русский - А.Гаврилов
Аудио #3: AC3, 640 Kbps, 48.0 KHz, 6 ch - - Английский - Оригинал--

MediaInfo

Общее
Уникальный идентификатор : 250627576015251877941136375827111968953 (0xBC8D1D87D1E08E2B8A49710E02A980B9)
Полное имя : E:\К ИНО\ФАНТАСТИКА\Мир Юрского периода\Jurassic_World_2015_Blu-Ray_1080p_Н264_DD5.1_N.B_2хRus_Eng\Jurassic_World_2015_BD-Remux_1080p_Н264_DD5.1_N.B_2хRus_Eng.mkv
Формат : Matroska
Версия формата : Version 4 / Version 2
Размер файла : 23,2 Гбайт
Продолжительность : 2 ч. 4 м.
Режим общего битрейта : Переменный
Общий поток : 26,7 Мбит/сек
Название фильма : Jurassic_World_2015_BD-Remux_1080p_Н264_DD5.1_N.B_2хRus_Eng
Дата кодирования : UTC 2015-11-28 19:47:12
Программа кодирования : mkvmerge v8.5.2 ('Crosses') 64bit
Библиотека кодирования : libebml v1.3.3 + libmatroska v1.4.4
Видео
Идентификатор : 1
Формат : AVC
Формат/Информация : Advanced Video Codec
Профиль формата : High@L4.1
Параметр CABAC формата : Да
Параметр ReFrames формата : 4 кадра
Идентификатор кодека : V_MPEG4/ISO/AVC
Продолжительность : 2 ч. 4 м.
Вид битрейта : Переменный
Битрейт : 24,7 Мбит/сек
Максимальный битрейт : 32,0 Мбит/сек
Ширина : 1920 пикселей
Высота : 1080 пикселей
Соотношение сторон : 16:9
Режим частоты кадров : Постоянный
Частота кадров : 23,976 (24000/1001) кадра/сек
Цветовое пространство : YUV
Субдискретизация насыщенности : 4:2:0
Битовая глубина : 8 бит
Тип развёртки : Прогрессивная
Бит/(Пиксели*Кадры) : 0.498
Размер потока : 21,5 Гбайт (93%)
Default : Да
Forced : Нет
Аудио #1
Идентификатор : 15
Формат : AC-3
Формат/Информация : Audio Coding 3
Расширение режима : CM (complete main)
Параметр Endianness формата : Big
Идентификатор кодека : A_AC3
Продолжительность : 2 ч. 4 м.
Вид битрейта : Постоянный
Битрейт : 640 Кбит/сек
Каналы : 6 каналов
Расположение каналов : Front: L C R, Side: L R, LFE
Частота : 48,0 КГц
Частота кадров : 31,250 кадров/сек (1536 spf)
Метод сжатия : С потерями
Размер потока : 569 Мбайт (2%)
Default : Да
Forced : Нет
Аудио #2
Идентификатор : 16
Формат : AC-3
Формат/Информация : Audio Coding 3
Расширение режима : CM (complete main)
Параметр Endianness формата : Big
Идентификатор кодека : A_AC3
Продолжительность : 2 ч. 4 м.
Вид битрейта : Постоянный
Битрейт : 640 Кбит/сек
Каналы : 6 каналов
Расположение каналов : Front: L C R, Side: L R, LFE
Частота : 48,0 КГц
Частота кадров : 31,250 кадров/сек (1536 spf)
Метод сжатия : С потерями
Размер потока : 569 Мбайт (2%)
Default : Нет
Forced : Нет
Аудио #3
Идентификатор : 17
Формат : AC-3
Формат/Информация : Audio Coding 3
Расширение режима : CM (complete main)
Параметр Endianness формата : Big
Идентификатор кодека : A_AC3
Продолжительность : 2 ч. 4 м.
Вид битрейта : Постоянный
Битрейт : 640 Кбит/сек
Каналы : 6 каналов
Расположение каналов : Front: L C R, Side: L R, LFE
Частота : 48,0 КГц
Частота кадров : 31,250 кадров/сек (1536 spf)
Метод сжатия : С потерями
Размер потока : 569 Мбайт (2%)
Default : Нет
Forced : Нет
Текст #1
Идентификатор : 2
Формат : PGS
Режим смешивания : zlib
Идентификатор кодека : S_HDMV/PGS
Идентификатор кодека/Информация : Picture based subtitle format used on BDs/HD-DVDs
Продолжительность : 1 ч. 53 м.
Битрейт : 11,1 Кбит/сек
Count of elements : 2989
Размер потока : 9,05 Мбайт (0%)
Default : Да
Forced : Нет
Текст #2
Идентификатор : 3
Формат : PGS
Режим смешивания : zlib
Идентификатор кодека : S_HDMV/PGS
Идентификатор кодека/Информация : Picture based subtitle format used on BDs/HD-DVDs
Продолжительность : 2 ч. 2 м.
Битрейт : 8462 бит/сек
Count of elements : 2454
Размер потока : 7,40 Мбайт (0%)
Default : Нет
Forced : Нет
Текст #3
Идентификатор : 4
Формат : PGS
Режим смешивания : zlib
Идентификатор кодека : S_HDMV/PGS
Идентификатор кодека/Информация : Picture based subtitle format used on BDs/HD-DVDs
Продолжительность : 2 ч. 2 м.
Битрейт : 8026 бит/сек
Count of elements : 2456
Размер потока : 7,02 Мбайт (0%)
Default : Нет
Forced : Нет
Текст #4
Идентификатор : 5
Формат : PGS
Режим смешивания : zlib
Идентификатор кодека : S_HDMV/PGS
Идентификатор кодека/Информация : Picture based subtitle format used on BDs/HD-DVDs
Продолжительность : 2 ч. 0 м.
Битрейт : 109 бит/сек
Count of elements : 38
Размер потока : 96,0 Кбайт (0%)
Default : Нет
Forced : Нет
Текст #5
Идентификатор : 6
Формат : UTF-8
Идентификатор кодека : S_TEXT/UTF8
Идентификатор кодека/Информация : UTF-8 Plain Text
Продолжительность : 1 ч. 39 м.
Битрейт : 0 бит/сек
Count of elements : 18
Размер потока : 615 байт (0%)
Default : Нет
Forced : Нет
Текст #6
Идентификатор : 7
Формат : UTF-8
Идентификатор кодека : S_TEXT/UTF8
Идентификатор кодека/Информация : UTF-8 Plain Text
Продолжительность : 1 ч. 52 м.
Битрейт : 79 бит/сек
Count of elements : 1226
Размер потока : 65,8 Кбайт (0%)
Default : Нет
Forced : Нет
Текст #7
Идентификатор : 8
Формат : UTF-8
Идентификатор кодека : S_TEXT/UTF8
Идентификатор кодека/Информация : UTF-8 Plain Text
Продолжительность : 1 ч. 39 м.
Битрейт : 0 бит/сек
Count of elements : 18
Размер потока : 613 байт (0%)
Default : Нет
Forced : Нет
Текст #8
Идентификатор : 9
Формат : UTF-8
Идентификатор кодека : S_TEXT/UTF8
Идентификатор кодека/Информация : UTF-8 Plain Text
Продолжительность : 1 ч. 52 м.
Битрейт : 75 бит/сек
Count of elements : 1227
Размер потока : 62,2 Кбайт (0%)
Default : Нет
Forced : Нет
Текст #9
Идентификатор : 10
Формат : UTF-8
Идентификатор кодека : S_TEXT/UTF8
Идентификатор кодека/Информация : UTF-8 Plain Text
Продолжительность : 1 ч. 52 м.
Битрейт : 46 бит/сек
Count of elements : 1252
Размер потока : 38,7 Кбайт (0%)
Default : Нет
Forced : Нет
Текст #10
Идентификатор : 11
Формат : UTF-8
Идентификатор кодека : S_TEXT/UTF8
Идентификатор кодека/Информация : UTF-8 Plain Text
Продолжительность : 1 ч. 52 м.
Битрейт : 47 бит/сек
Count of elements : 1289
Размер потока : 39,6 Кбайт (0%)
Default : Нет
Forced : Нет
Текст #11
Идентификатор : 12
Формат : UTF-8
Идентификатор кодека : S_TEXT/UTF8
Идентификатор кодека/Информация : UTF-8 Plain Text
Продолжительность : 1 ч. 53 м.
Битрейт : 65 бит/сек
Count of elements : 1495
Размер потока : 54,7 Кбайт (0%)
Default : Нет
Forced : Нет
Текст #12
Идентификатор : 13
Формат : UTF-8
Идентификатор кодека : S_TEXT/UTF8
Идентификатор кодека/Информация : UTF-8 Plain Text
Продолжительность : 1 ч. 53 м.
Битрейт : 52 бит/сек
Count of elements : 1492
Размер потока : 44,0 Кбайт (0%)
Default : Нет
Forced : Нет
Текст #13
Идентификатор : 14
Формат : UTF-8
Идентификатор кодека : S_TEXT/UTF8
Идентификатор кодека/Информация : UTF-8 Plain Text
Продолжительность : 1 ч. 53 м.
Битрейт : 51 бит/сек
Count of elements : 1457
Размер потока : 43,2 Кбайт (0%)
Default : Нет
Forced : Нет
--

Скриншоты

-- -- -- --Релиз от: Nikolai.Baranov -- -- -- --
[Профиль] [ЛС]
Кто просматривает тему:

Показать сообщения:    

Текущее время: Сегодня 04:17

Часовой пояс: GMT



Вы не можете начинать темы
Вы не можете отвечать на сообщения
Вы не можете редактировать свои сообщения
Вы не можете удалять свои сообщения
Вы не можете голосовать в опросах
Вы не можете прикреплять файлы к сообщениям
Вы не можете скачивать файлы