Мир Юрского периода / Jurassic World (Колин Треворроу / Colin Trevorrow) [2015, США, Китай, Фантастика, приключения, боевик, BDRip-AVC] Dub + Original Eng, Sub (Rus, Eng)

 
Автор Сообщение

TorrentFilm ®

Пол:

Стаж: 2 года

Сообщений: 7741



Награды: Нет

Торрент-статистика

Создавать темы 29-Сен-2015 00:08

[Цитировать]

Мир Юрского периода / Jurassic World
Страна: США, Китай
Жанр: Фантастика, приключения, боевик.
Год выпуска: 2015
Продолжительность: 02:04:21
Перевод: Профессиональный (дублированный)
Cубтитры: русские, английские.
Оригинальная аудиодорожка: английский.
Режиссер: Колин Треворроу / Colin Trevorrow
В ролях: Крис Пратт, Брайс Даллас Ховард, Ник Дж. Робинсон, Тай Симпкинс, Винсент Д’Онофрио, Ирфан Кхан, Омар Си, Б.Д. Вонг, Джейк Джонсон, Джуди Грир
Описание: Действие происходит через 22 года после событий «Парка Юрского периода». На острове Нублар функционирует парк, задуманный Джоном Хэммондом. Но к этому времени посещаемость уже начинает падать, и компания — владелец парка решает открыть новый аттракцион, чтобы привлечь посетителей. И вот снова тысячи людей спешат увидеть Мир Юрского периода, но безопасное на первый взгляд развлечение может обернуться угрозой для всего человечества...- -Качество видео: BDRip-AVC (Jurassic World (2015) Blu-ray CEE 1080p AVC DTS) HDclub
Формат видео: MKV
Видео: 1120x560 (2.000), 23.976 fps, 4127 kbps avg, 0.274 bit / pixel
Аудио 1: 48 kHz, AC3 Dolby Digital, 3/2 (L,C,R,l,r) + LFE ch, ~448 kbps / DUB
Аудио 2: 48 kHz, AC3 Dolby Digital, 3/2 (L,C,R,l,r) + LFE ch, ~448 kbps / ENG
Субтитры №1: Russian
Субтитры №2: English
Навигация по главам: есть

MediaInfoх264

x264 [info]: frame I:1388 Avg QP:17.13 size:117232 PSNR Mean Y:44.80 U:46.10 V:45.91 Avg:45.10 Global:44.08
x264 [info]: frame P:45898 Avg QP:19.97 size: 38228 PSNR Mean Y:42.70 U:45.96 V:45.53 Avg:43.44 Global:42.18
x264 [info]: frame B:131602 Avg QP:21.55 size: 14649 PSNR Mean Y:42.04 U:45.99 V:45.33 Avg:42.86 Global:41.48
x264 [info]: consecutive B-frames: 4.0% 5.2% 13.4% 25.0% 18.7% 27.1% 3.3% 0.9% 0.8% 0.6% 0.2% 0.1% 0.1% 0.5% 0.1%
x264 [info]: mb I I16..4: 12.2% 64.3% 23.5%
x264 [info]: mb P I16..4: 0.7% 15.4% 1.7% P16..4: 29.6% 35.3% 12.8% 0.0% 0.0% skip: 4.5%
x264 [info]: mb B I16..4: 0.1% 2.2% 0.2% B16..8: 36.3% 21.9% 4.3% direct: 6.5% skip:28.6% L0:41.3% L1:43.2% BI:15.5%
x264 [info]: 8x8 transform intra:84.3% inter:57.2%
x264 [info]: direct mvs spatial:97.8% temporal:2.2%
x264 [info]: coded y,uvDC,uvAC intra: 93.9% 82.0% 53.2% inter: 35.1% 19.6% 6.4%
x264 [info]: i16 v,h,dc,p: 39% 12% 14% 35%
x264 [info]: i8 v,h,dc,ddl,ddr,vr,hd,vl,hu: 8% 7% 9% 10% 14% 13% 14% 12% 13%
x264 [info]: i4 v,h,dc,ddl,ddr,vr,hd,vl,hu: 8% 7% 7% 8% 16% 14% 14% 11% 13%
x264 [info]: i8c dc,h,v,p: 38% 23% 18% 21%
x264 [info]: Weighted P-Frames: Y:3.0% UV:1.6%
x264 [info]: ref P L0: 48.7% 13.2% 16.5% 5.4% 4.6% 3.4% 2.8% 1.5% 1.4% 1.1% 1.2% 0.3% 0.0%
x264 [info]: ref B L0: 74.4% 11.2% 5.0% 2.8% 1.9% 2.0% 1.3% 0.8% 0.4% 0.2%
x264 [info]: ref B L1: 93.4% 6.6%
x264 [info]: SSIM Mean Y:0.9728408 (15.661db)
x264 [info]: PSNR Mean Y:42.230 U:45.985 V:45.382 Avg:43.023 Global:41.665 kb/s:4122.92
x264 [total]: encoded 178888 frames, 5.19 fps, 4122.92 kb/s, duration 9:34:49.55
TIME
------------------------------
Общее время кодирования: 11 hour 53 min 11 sec
Файл получился на: 3668.40 mb
General
Unique ID : 215043092901563565751310285165099872300 (0xA1C7CB0ED87CFCDC80453FB5B555F02C)
Complete name : D:\Фильмы\Jurassic World.2015.BDrip-AVC.Froloff777.mkv
Format : Matroska
Format version : Version 2
File size : 4.36 GiB
Duration : 2h 4mn
Overall bit rate : 5 021 Kbps
Movie name : Мир Юрского периода. (Tonik)
Encoded date : UTC 2015-09-28 14:42:12
Writing application : mkvmerge v7.8.0 ('River Man') 32bit built on Apr 3 2015 12:11:22
Writing library : libebml v1.3.1 + libmatroska v1.4.2
Attachements : cover.jpg
DURATION : 01:53:44.109000000
NUMBER_OF_FRAMES : 1494
NUMBER_OF_BYTES : 45101
_STATISTICS_WRITING_APP : mkvmerge v7.1.0 ('Good Love') 64bit built on Jul 27 2014 13:06:55
_STATISTICS_WRITING_DATE_UT : 2015-09-26 19:47:20
_STATISTICS_TAGS : BPS DURATION NUMBER_OF_FRAMES NUMBER_OF_BYTES
Video
ID : 1
Format : AVC
Format/Info : Advanced Video Codec
Format profile : High@L4.1
Format settings, CABAC : Yes
Format settings, ReFrames : 11 frames
Codec ID : V_MPEG4/ISO/AVC
Duration : 2h 4mn
Bit rate : 4 127 Kbps
Width : 1 120 pixels
Height : 560 pixels
Display aspect ratio : 2.000
Frame rate mode : Constant
Frame rate : 23.976 fps
Color space : YUV
Chroma subsampling : 4:2:0
Bit depth : 8 bits
Scan type : Progressive
Bits/(Pixel*Frame) : 0.274
Stream size : 3.50 GiB (80%)
Title : Jurassic World
Writing library : x264 core 146 r2538kMod 121396c
Encoding settings : cabac=1 / ref=11 / deblock=1:-3:-3 / analyse=0x3:0x113 / me=umh / subme=11 / psy=1 / fade_compensate=0.00 / psy_rd=0.95:0.05 / mixed_ref=1 / me_range=32 / chroma_me=1 / trellis=2 / 8x8dct=1 / cqm=0 / deadzone=21,11 / fast_pskip=0 / chroma_qp_offset=0 / threads=6 / lookahead_threads=1 / sliced_threads=0 / nr=0 / decimate=0 / interlaced=0 / bluray_compat=0 / constrained_intra=0 / fgo=0 / bframes=14 / b_pyramid=2 / b_adapt=2 / b_bias=0 / direct=3 / weightb=1 / open_gop=0 / weightp=2 / keyint=250 / keyint_min=23 / scenecut=40 / intra_refresh=0 / rc_lookahead=60 / rc=2pass / mbtree=0 / bitrate=4127 / ratetol=1.0 / qcomp=0.60 / qpmin=0 / qpmax=69 / qpstep=4 / cplxblur=20.0 / qblur=0.5 / vbv_maxrate=62500 / vbv_bufsize=50000 / nal_hrd=none / filler=0 / ip_ratio=1.40 / pb_ratio=1.30 / aq=3:1.00
Language : English
Default : Yes
Forced : No
Audio #1
ID : 2
Format : AC-3
Format/Info : Audio Coding 3
Mode extension : CM (complete main)
Format settings, Endianness : Big
Codec ID : A_AC3
Duration : 2h 4mn
Bit rate mode : Constant
Bit rate : 448 Kbps
Channel(s) : 6 channels
Channel positions : Front: L C R, Side: L R, LFE
Sampling rate : 48.0 KHz
Compression mode : Lossy
Stream size : 398 MiB (9%)
Title : Дублированный
Language : Russian
Default : Yes
Forced : No
Audio #2
ID : 3
Format : AC-3
Format/Info : Audio Coding 3
Mode extension : CM (complete main)
Format settings, Endianness : Big
Codec ID : A_AC3
Duration : 2h 4mn
Bit rate mode : Constant
Bit rate : 448 Kbps
Channel(s) : 6 channels
Channel positions : Front: L C R, Side: L R, LFE
Sampling rate : 48.0 KHz
Compression mode : Lossy
Stream size : 398 MiB (9%)
Language : English
Default : No
Forced : No
Text #1
ID : 4
Format : UTF-8
Codec ID : S_TEXT/UTF8
Codec ID/Info : UTF-8 Plain Text
Title : Forced
Language : Russian
Default : Yes
Forced : No
Text #2
ID : 5
Format : UTF-8
Codec ID : S_TEXT/UTF8
Codec ID/Info : UTF-8 Plain Text
Language : Russian
Default : No
Forced : No
Text #3
ID : 6
Format : UTF-8
Codec ID : S_TEXT/UTF8
Codec ID/Info : UTF-8 Plain Text
Language : English
Default : No
Forced : No
Menu
00:00:00.000 : en:Chapter 01
00:06:59.168 : en:Chapter 02
00:11:01.827 : en:Chapter 03
00:18:28.440 : en:Chapter 04
00:25:34.866 : en:Chapter 05
00:31:20.837 : en:Chapter 06
00:39:23.861 : en:Chapter 07
00:44:07.853 : en:Chapter 08
00:48:57.225 : en:Chapter 09
00:55:51.056 : en:Chapter 10
01:01:21.344 : en:Chapter 11
01:09:50.561 : en:Chapter 12
01:15:25.479 : en:Chapter 13
01:23:51.860 : en:Chapter 14
01:30:14.700 : en:Chapter 15
01:36:45.424 : en:Chapter 16
01:41:15.652 : en:Chapter 17
01:47:35.282 : en:Chapter 18
01:53:06.029 : en:Chapter 19
01:55:37.555 : en:Chapter 20
02:04:20.870 : en:Chapter 21

Скриншоты

Сравнение с исходником




[Профиль] [ЛС]
Кто просматривает тему:

Показать сообщения:    

Текущее время: Сегодня 20:10

Часовой пояс: GMT



Вы не можете начинать темы
Вы не можете отвечать на сообщения
Вы не можете редактировать свои сообщения
Вы не можете удалять свои сообщения
Вы не можете голосовать в опросах
Вы не можете прикреплять файлы к сообщениям
Вы не можете скачивать файлы