Мир Триасового периода / Triassic World (2017) WEBRip | L2

 
Автор Сообщение

BOSS ®

Пол:

Стаж: 3 года 11 месяцев

Сообщений: 11860

Откуда: ODESSA



Награды: 22 (Подробнее)

Mega Seeder 5 (Количество: 1) Top Releaser 5 (Количество: 1) Top Keeper 1 (Количество: 1)
Торрент-статистика

Создавать темы 11-Июл-2018 16:23

[Цитировать]

Информация о фильме
Название: Мир Триасового периода
Оригинальное название: Triassic World
Год выхода: 2017
Жанр: Ужасы, фантастика, боевик
Режиссер: Дилан Вокс
В ролях: Джоэль Берти, Шарон Дезире, Грег Фурман, Джозеф Майкл Харрис, Даррин Хичкок, Жермен Холлман, Полина Лоран, Дженнифер Левинсон, Корбин Майлз, Брендан Петриццо и другие
О фильме:
Секретная лаборатория посреди мегаполиса выращивает динозавров, чтобы использовать их органы для трансплантации людям. Для этого ящерам предварительно вводятся человеческие гормоны и протеины. Но всё идёт не так, когда инъекции начинают оказывать неожиданный побочный эффект.

Страна: США, Asylum
Продолжительность: 01:29:38
Перевод: Любительский (двухголосый закадровый) | HiWay Grope
Файл
Кодек: XviD
Качество: WEBRip
Видео: 720x400, 23.976 fps, ~1693 kbps, 0.25 bit/pixel
Звук:
Аудио rus: AC3, 48 kHz, 6 ch, 384 Kbps
Субтитры: отсутствуют
Реклама: присутствует
Семпл

MediaInfo:

General
Complete name : D:Triassic.World.2017.WEBRip.HiWayGropeTriassic.World.2017.WEBRip.HiWayGrope.avi
Format : AVI
Format/Info : Audio Video Interleave
File size : 1.31 GiB
Duration : 1 h 29 min
Overall bit rate : 2 087 kb/s
Writing application : VirtualDubMod 1.5.10.3 (build 2550/release)
Writing library : VirtualDubMod build 2550/release
Video
ID : 0
Format : MPEG-4 Visual
Format profile : Advanced Simple@L5
Format settings : BVOP1
Format settings, BVOP : 1
Format settings, QPel : No
Format settings, GMC : No warppoints
Format settings, Matrix : Default (MPEG)
Codec ID : XVID
Codec ID/Hint : XviD
Duration : 1 h 29 min
Bit rate : 1 694 kb/s
Width : 720 pixels
Height : 400 pixels
Display aspect ratio : 16:9
Frame rate : 23.976 (24000/1001) FPS
Original frame rate : 23.976 (23976/1000) FPS
Color space : YUV
Chroma subsampling : 4:2:0
Bit depth : 8 bits
Scan type : Progressive
Compression mode : Lossy
Bits/(Pixel*Frame) : 0.245
Stream size : 1.06 GiB (81%)
Writing library : XviD 73
Audio
ID : 1
Format : AC-3
Format/Info : Audio Coding 3
Codec ID : 2000
Duration : 1 h 29 min
Bit rate mode : Constant
Bit rate : 384 kb/s
Channel(s) : 6 channels
Channel positions : Front: L C R, Side: L R, LFE
Sampling rate : 48.0 kHz
Frame rate : 31.250 FPS (1536 SPF)
Bit depth : 16 bits
Compression mode : Lossy
Stream size : 246 MiB (18%)
Alignment : Split accross interleaves
Interleave, duration : 42 ms (1.00 video frame)
Interleave, preload duratio : 500 ms
Service kind : Complete Main

Скриншоты

Релиз от: HiWay Grope
[Профиль] [ЛС]
Кто просматривает тему:

Показать сообщения:    

Текущее время: Сегодня 22:28

Часовой пояс: GMT



Вы не можете начинать темы
Вы не можете отвечать на сообщения
Вы не можете редактировать свои сообщения
Вы не можете удалять свои сообщения
Вы не можете голосовать в опросах
Вы не можете прикреплять файлы к сообщениям
Вы не можете скачивать файлы