Мир по Гарпу / The World According to Garp (1982) BDRip 1080p от MediaClub | P, P1, A

 
Автор Сообщение

Russian Mafia ®

Пол:

Стаж: 1 год 8 месяцев

Сообщений: 4246



Награды: 10 (Подробнее)

Top Releaser 4 (Количество: 1) Mega Seeder 3 (Количество: 1) Top Releaser 3 (Количество: 1)
Торрент-статистика

Создавать темы 07-Авг-2016 09:43

[Цитировать]

Информация о фильме
Название: Мир по Гарпу
Оригинальное название: The World According to Garp
Год выхода: 1982
Жанр: Драма, комедия, мелодрама, экранизация
Режиссер: Джордж Рой Хилл
В ролях: Робин Уильямс, Мэри Бет Хёрт, Гленн Клоуз, Джон Литгоу, Хьюм Кронин, Джессика Тэнди, Свузи Керц, Джеймс МакКолл, Питер Майкл Гец, Джордж Иди, Марк Сопер, Нэтан Бэбкок, Эван МакГрегор, Уоррен Берлинджер, Сьюзэн Браунинг, Брэндон Мэггарт, Дженни Райт, Бренда Каррин, Джиллиан Росс, Лори Робин, Виктор Маньотта, Доминик А. Чечере, Джон Ирвинг, Дэн Голдман, Эл ДеПиппо, Кристофер Фарр, Бретт Литман, Брэндон Рот, Стивен Крэй, Лаура Кэй, Аманда Пламмер, Бетти Хенрице, Джин Де Баэр, Рон Фрэзиер, Кэтрин Боровиц, Изабелл Монк, Джон Коркоран, Тим Гэллин, Кейт Макгрегор-Стюарт
О фильме:
По одноименному роману Джона Ирвинга. Драматическая история жизни «маленького большого человека», незаконнорожденного сына медсестры, ставшего писателем и пытавшегося создать собственную модель мира, способна тронуть до глубины души всякого зрителя. Родившийся во время второй мировой, воспитывавшийся в консервативные 50-е, возмужавший в бурные 60-е, Гарп явно тяготел к европейской культуре, но стал безусловным членом американского общества. Этот «инженер человеческих душ» познает трагикомизм современного бытия, абсурдность стереотипов поведения и двусмысленность общепринятой морали. И тогда самой увлекательной и глубокой его книгой становится собственная жизнь!
Страна: США
Студия: Pan Arts, Warner Bros. Pictures Co.
Продолжительность: 02:16:23
Перевод: Профессиональный многоголосый, Профессиональный одноголосый, Авторский
Файл
Кодек: h.264
Качество: BDRip 1080p
Видео: MPEG-4 AVC, 16600 Кбит/с, 1904x1080, 23.976 кадр/с
Звук:
Русский (AC3, 2 ch, 192 Кбит/с) / Профессиональный многоголосый
Русский (AC3, 2 ch, 192 Кбит/с) / Профессиональный одноголосый
Русский (DTS, 2 ch, 1509 Кбит/с) / Авторский (Ю. Живов)
Английский (DTS, 2 ch, 1509 Кбит/с)
Субтитры: Русские, английские
Семпл

О релизе

Автор релиза - Silverok, За BDRemux спасибо timur1965
Субтитры: S_TEXT/UTF8 (SRT) - Русские, английские
Сохранены оригинальные главы как на Blu-ray

Награды

Победитель:
- 1982. Приз Национального совета обозревателей (National Board of Review, США): Лучшая второплановая женская роль (Гленн Клоуз),
- 1982. Los Angeles Film Critics Association Awards, США: Лучший актёр второго плана (Джон Литгоу), Лучшая актриса второго плана (Гленн Клоуз),
- 1982. New York Film Critics Circle Awards, США: Лучшая актриса второго плана (Гленн Клоуз),
Номинации:
- 1983. Премия Оскар: Лучшая мужская роль второго плана (Джон Литгоу), Лучшая женская роль второго плана (Гленн Клоуз),
- 1983. Writers Guild of America, США: Лучший адаптированный сценарий (Стив Тесич).

MI

бщее
Уникальный идентификатор : 220244086145743054778415604469137418819 (0xA5B177D2AA01893E9E1737EEE8A82A43)
Полное имя : D:uTorrentMir.po.Garpu.1982.BDRip.1080p.MediaClub.mkv
Формат : Matroska
Версия формата : Version 4 / Version 2
Размер файла : 19,1 Гбайт
Продолжительность : 2 ч. 16 м.
Общий поток : 20,0 Мбит/сек
Дата кодирования : UTC 2016-08-07 04:24:58
Программа кодирования : mkvmerge v9.3.1 ('Mask Machine') 64bit
Библиотека кодирования : libebml v1.3.4 + libmatroska v1.4.5
Видео
Идентификатор : 1
Формат : AVC
Формат/Информация : Advanced Video Codec
Профиль формата : High@L4.1
Параметр CABAC формата : Да
Параметр ReFrames формата : 4 кадра
Идентификатор кодека : V_MPEG4/ISO/AVC
Продолжительность : 2 ч. 16 м.
Битрейт : 16,6 Мбит/сек
Ширина : 1904 пикселя
Высота : 1080 пикселей
Соотношение сторон : 16:9
Режим частоты кадров : Постоянный
Частота кадров : 23,976 (24000/1001) кадра/сек
Цветовое пространство : YUV
Субдискретизация насыщенности : 4:2:0
Битовая глубина : 8 бит
Тип развёртки : Прогрессивная
Бит/(Пиксели*Кадры) : 0.337
Размер потока : 15,4 Гбайт (81%)
Заголовок : BDRip by Silverok
Библиотека кодирования : x264 core 148 r2638 7599210
Настройки программы : cabac=1 / ref=4 / deblock=1:-3:-3 / analyse=0x3:0x113 / me=umh / subme=11 / psy=1 / psy_rd=1.00:0.10 / mixed_ref=1 / me_range=48 / chroma_me=1 / trellis=2 / 8x8dct=1 / cqm=0 / deadzone=21,11 / fast_pskip=0 / chroma_qp_offset=-3 / threads=12 / lookahead_threads=2 / sliced_threads=0 / nr=0 / decimate=0 / interlaced=0 / bluray_compat=0 / constrained_intra=0 / bframes=8 / b_pyramid=2 / b_adapt=2 / b_bias=0 / direct=3 / weightb=1 / open_gop=0 / weightp=2 / keyint=240 / keyint_min=24 / scenecut=40 / intra_refresh=0 / rc=2pass / mbtree=0 / bitrate=16600 / ratetol=1.0 / qcomp=0.60 / qpmin=0 / qpmax=69 / qpstep=4 / cplxblur=20.0 / qblur=0.5 / ip_ratio=1.40 / pb_ratio=1.30 / aq=1:1.00
Default : Да
Forced : Нет
Аудио #1
Идентификатор : 2
Формат : AC-3
Формат/Информация : Audio Coding 3
Расширение режима : CM (complete main)
Параметр Endianness формата : Big
Идентификатор кодека : A_AC3
Продолжительность : 2 ч. 16 м.
Вид битрейта : Постоянный
Битрейт : 192 Кбит/сек
Каналы : 2 канала
Расположение каналов : Front: L R
Частота : 48,0 КГц
Частота кадров : 31,250 кадров/сек (1536 spf)
Метод сжатия : С потерями
Размер потока : 187 Мбайт (1%)
Заголовок : Профессиональный многоголосый
Язык : Russian
Default : Да
Forced : Нет
Аудио #2
Идентификатор : 3
Формат : AC-3
Формат/Информация : Audio Coding 3
Расширение режима : CM (complete main)
Параметр Endianness формата : Big
Идентификатор кодека : A_AC3
Продолжительность : 2 ч. 16 м.
Вид битрейта : Постоянный
Битрейт : 192 Кбит/сек
Каналы : 2 канала
Расположение каналов : Front: L R
Частота : 48,0 КГц
Частота кадров : 31,250 кадров/сек (1536 spf)
Метод сжатия : С потерями
Размер потока : 187 Мбайт (1%)
Заголовок : Профессиональный Одноголосый
Язык : Russian
Default : Нет
Forced : Нет
Аудио #3
Идентификатор : 4
Формат : DTS
Формат/Информация : Digital Theater Systems
Режим : 16
Параметр Endianness формата : Big
Идентификатор кодека : A_DTS
Продолжительность : 2 ч. 16 м.
Вид битрейта : Постоянный
Битрейт : 1509 Кбит/сек
Каналы : 2 канала
Расположение каналов : Front: L R
Частота : 48,0 КГц
Частота кадров : 93,750 кадра/сек (512 spf)
Битовая глубина : 24 бит
Метод сжатия : С потерями
Размер потока : 1,44 Гбайт (8%)
Заголовок : Авторский (Ю. Живов)
Язык : Russian
Default : Нет
Forced : Нет
Аудио #4
Идентификатор : 5
Формат : DTS
Формат/Информация : Digital Theater Systems
Режим : 16
Параметр Endianness формата : Big
Идентификатор кодека : A_DTS
Продолжительность : 2 ч. 16 м.
Вид битрейта : Постоянный
Битрейт : 1509 Кбит/сек
Каналы : 2 канала
Расположение каналов : Front: L R
Частота : 48,0 КГц
Частота кадров : 93,750 кадра/сек (512 spf)
Битовая глубина : 24 бит
Метод сжатия : С потерями
Размер потока : 1,44 Гбайт (8%)
Язык : English
Default : Нет
Forced : Нет
Текст #1
Идентификатор : 6
Формат : UTF-8
Идентификатор кодека : S_TEXT/UTF8
Идентификатор кодека/Информация : UTF-8 Plain Text
Язык : Russian
Default : Да
Forced : Нет
Текст #2
Идентификатор : 7
Формат : UTF-8
Идентификатор кодека : S_TEXT/UTF8
Идентификатор кодека/Информация : UTF-8 Plain Text
Язык : English
Default : Нет
Forced : Нет
Меню
00:00:00.000 : en:
00:02:36.364 : en:
00:04:38.193 : en:
00:07:46.048 : en:
00:11:10.419 : en:
00:14:02.215 : en:
00:17:05.398 : en:
00:19:44.849 : en:
00:24:21.460 : en:
00:25:53.677 : en:
00:29:24.344 : en:
00:33:39.559 : en:
00:35:22.245 : en:
00:37:54.105 : en:
00:39:52.640 : en:
00:45:51.873 : en:
00:48:37.623 : en:
00:51:40.097 : en:
00:53:58.944 : en:
00:56:53.409 : en:
00:59:19.180 : en:
01:02:18.234 : en:
01:03:22.381 : en:
01:10:10.915 : en:
01:12:43.649 : en:
01:15:25.729 : en:
01:18:04.429 : en:
01:20:03.881 : en:
01:25:07.519 : en:
01:27:42.548 : en:
01:30:15.952 : en:
01:33:25.765 : en:
01:37:41.272 : en:
01:42:13.752 : en:
01:46:15.452 : en:
01:50:11.604 : en:
01:53:13.495 : en:
01:57:23.286 : en:
02:01:57.310 : en:
02:04:51.108 : en:
02:07:18.172 : en:
02:10:35.953 : en:
02:12:13.592 : en:
02:14:09.041 : en:
02:16:22.215 : en:

Скриншоты

[Профиль] [ЛС]
Кто просматривает тему:

Показать сообщения:    

Текущее время: Сегодня 04:58

Часовой пояс: GMT



Вы не можете начинать темы
Вы не можете отвечать на сообщения
Вы не можете редактировать свои сообщения
Вы не можете удалять свои сообщения
Вы не можете голосовать в опросах
Вы не можете прикреплять файлы к сообщениям
Вы не можете скачивать файлы