Мир до и после Колумба / America Before Columbus (Кристина Требби) [2009 г., Документально-постановочный, история, путешествия, SATRip]

 
Автор Сообщение

sergun ®

Стаж: 1 год 8 месяцев

Сообщений: 15



Награды: Нет

Торрент-статистика

Создавать темы 17-Мар-2015 16:15

[Цитировать]

Мир до и после Колумба / America Before Columbus
Год выпуска: 2009
Страна: США, Германия, Gruppe 5 Filmproduktion, National Geographic Channel, Zweites Deutsches Fernsehen (ZDF)
Жанр: Документально-постановочный, история, путешествия
Продолжительность: 2 х ~ 00:49:59
Перевод: Профессиональный (одноголосый)
Режиссер: Кристина Требби
Описание: В 1492 году состоялось открытие Америки Колумбом. Первые переселенцы и колонизация. Происходит столкновение двух миров культурами, обычаями и верованиями. Результатом этого столкновения был обмен техникой, продуктами питания и другими предметами и изделиями в различных отраслях. Всё это называлось "Колумбовский обмен". Рассмотрим подробно причины того, что привело к гибели цивилизаций и народов в Северной и Южной Америке и в то же время дало начало новому этапу возрождения Европы. Этот документальный фильм охватывает период до Колумба и сотни лет колонизации Европой Америки. В фильме использованы эффекты 3D анимации и реконструкция событий с профессиональными актерами.
Качество: SATRip
Формат: AVI
Видео кодек: XviD
Аудио кодек: AC3
Видео: 720x400 25fps 1800kbps
Аудио: AC3, 2 ch, 192 Кбит/с

Скриншоты


MediaInfo:

Format : AVI
Format/Info : Audio Video Interleave
File size : 715 MiB
Duration : 49mn 59s
Overall bit rate : 1 998 Kbps
Writing application : TMPGEnc Video Mastering Works 5 Version. 5.0.6.38
Writing library : TMPGEnc Video Mastering Works 5 Version. 5.0.6.38
Video
ID : 0
Format : MPEG-4 Visual
Format profile : Advanced Simple@L5
Format settings, BVOP : 2
Format settings, QPel : No
Format settings, GMC : No warppoints
Format settings, Matrix : Default (H.263)
Muxing mode : Packed bitstream
Codec ID : XVID
Codec ID/Hint : XviD
Duration : 49mn 59s
Bit rate : 1 798 Kbps
Width : 720 pixels
Height : 400 pixels
Display aspect ratio : 16:9
Frame rate : 25.000 fps
Color space : YUV
Chroma subsampling : 4:2:0
Bit depth : 8 bits
Scan type : Progressive
Compression mode : Lossy
Bits/(Pixel*Frame) : 0.250
Stream size : 643 MiB (90%)
Writing library : XviD 73
Audio
ID : 1
Format : AC-3
Format/Info : Audio Coding 3
Mode extension : CM (complete main)
Format settings, Endianness : Big
Codec ID : 2000
Duration : 49mn 59s
Bit rate mode : Constant
Bit rate : 192 Kbps
Channel(s) : 2 channels
Channel positions : Front: L R
Sampling rate : 48.0 KHz
Bit depth : 16 bits
Compression mode : Lossy
Stream size : 68.7 MiB (10%)
Alignment : Aligned on interleaves
Interleave, duration : 240 ms (6.00 video frames)
Interleave, preload duration : 224 ms
[Профиль] [ЛС]
Кто просматривает тему:

Показать сообщения:    

Текущее время: Сегодня 08:51

Часовой пояс: GMT



Вы не можете начинать темы
Вы не можете отвечать на сообщения
Вы не можете редактировать свои сообщения
Вы не можете удалять свои сообщения
Вы не можете голосовать в опросах
Вы не можете прикреплять файлы к сообщениям
Вы не можете скачивать файлы