Миротворец / The Peacemaker (1997) BDRip 1080p от denis 100

 
Автор Сообщение

Russian Mafia ®

Пол:

Стаж: 1 год 8 месяцев

Сообщений: 4255



Награды: 10 (Подробнее)

Mega Seeder 2 (Количество: 1) Top Releaser 2 (Количество: 1) Mega Seeder 3 (Количество: 1)
Торрент-статистика

Создавать темы 23-Окт-2015 18:37

[Цитировать]

Информация о фильме
Название: Миротворец
Оригинальное название: The Peacekeeper
Год выпуска: 1997
Жанр: Боевик, триллер
Выпущено: США, DreamWorks SKG
Режиссер: Мими Ледер
В ролях: Джордж Клуни, Николь Кидман, Армин Мюллер-Шталь, Марсель Юрес, Александр Балуев, Рене Медвежек, Александр Кузнецов, Чак Норрис, Горан Вишнич, Майкл Сарразин
Перевод: Профессиональный (двухголосый закадровый)
Сюжет фильма
Русский поезд, который везет ядерные ракеты с целью их уничтожения, частично поврежден взрывом где-то в отдаленном районе на юге России. Соответствующие сигналы поступают в ядерный центр американского Белого Дома, где ситуацию контролируют специалист по ядерной физике и полковник спецслужбы армии США. Они выясняют, что взрыв был спланирован заранее с целью замести следы похищения оставшейся части опасного оружия русским генералом, который был намерен продать его международным террористам, и в последний момент предотвращают террористический акт в Нью-Йорке.

Файл
Качество: BDRip 1080p (исходник Blu-ray)
Видео: 1920x816, 7 655 Кбит/сек, 23.976 кадр/сек, AVC, x264, High@L4.1, 0.204 Бит/[Пиксели*Кадры], 2pass
Аудио 1: AC3 5.1 48 kHz 640 kbps - English
Аудио 2: AC3 5.1 48 kHz 448 kbps - Профессиональный (двухголосый закадровый)-R5 - "Премьер"
Аудио 3: AC3 5.1 48 kHz 448 kbps - Профессиональный (двухголосый закадровый)-d2Lab
Чаптеры: есть
Субтитры: Русские
Продолжительность: 02:03:50

Скриншоты

MediaInfo

Format : Matroska
Format version : Version 2
File size : 7.95 GiB
Duration : 2h 3mn
Overall bit rate : 9 188 Kbps
Movie name : Mirotvorec.(1997).BDRip.1080p.[denis100]
Encoded date : UTC 2014-01-16 10:22:26
Writing application : mkvmerge v5.8.0 ('No Sleep / Pillow') built on Sep 2 2012 15:37:04
Writing library : libebml v1.2.3 + libmatroska v1.3.0
Video
ID : 1
Format : AVC
Format/Info : Advanced Video Codec
Format profile : High@L4.1
Format settings, CABAC : Yes
Format settings, ReFrames : 5 frames
Codec ID : V_MPEG4/ISO/AVC
Duration : 2h 3mn
Bit rate : 7 655 Kbps
Width : 1 920 pixels
Height : 816 pixels
Display aspect ratio : 2.35:1
Frame rate mode : Constant
Frame rate : 23.976 fps
Color space : YUV
Chroma subsampling : 4:2:0
Bit depth : 8 bits
Scan type : Progressive
Bits/(Pixel*Frame) : 0.204
Stream size : 6.46 GiB (81%)
Title : Mirotvorec.(1997).BDRip.1080p от _denis_100
Writing library : x264 core 140 r2377 1ca7bb9
Encoding settings : cabac=1 / ref=5 / deblock=1:-3:-3 / analyse=0x3:0x133 / me=umh / subme=11 / psy=1 / psy_rd=1.00:0.10 / mixed_ref=1 / me_range=32 / chroma_me=1 / trellis=2 / 8x8dct=1 / cqm=0 / deadzone=21,11 / fast_pskip=0 / chroma_qp_offset=-3 / threads=6 / lookahead_threads=1 / sliced_threads=0 / nr=0 / decimate=0 / interlaced=0 / bluray_compat=0 / constrained_intra=0 / bframes=8 / b_pyramid=2 / b_adapt=2 / b_bias=0 / direct=3 / weightb=1 / open_gop=0 / weightp=2 / keyint=240 / keyint_min=23 / scenecut=40 / intra_refresh=0 / rc=2pass / mbtree=0 / bitrate=7655 / ratetol=1.0 / qcomp=0.60 / qpmin=0 / qpmax=69 / qpstep=4 / cplxblur=20.0 / qblur=0.5 / ip_ratio=1.40 / pb_ratio=1.30 / aq=1:1.00
Language : English
Default : Yes
Forced : No
Audio #1
ID : 2
Format : AC-3
Format/Info : Audio Coding 3
Mode extension : CM (complete main)
Format settings, Endianness : Big
Codec ID : A_AC3
Duration : 2h 3mn
Bit rate mode : Constant
Bit rate : 640 Kbps
Channel count : 6 channels
Channel positions : Front: L C R, Side: L R, LFE
Sampling rate : 48.0 KHz
Bit depth : 16 bits
Compression mode : Lossy
Stream size : 567 MiB (7%)
Title : English
Language : English
Default : No
Forced : No
Audio #2
ID : 3
Format : AC-3
Format/Info : Audio Coding 3
Mode extension : CM (complete main)
Format settings, Endianness : Big
Codec ID : A_AC3
Duration : 2h 3mn
Bit rate mode : Constant
Bit rate : 448 Kbps
Channel count : 6 channels
Channel positions : Front: L C R, Side: L R, LFE
Sampling rate : 48.0 KHz
Bit depth : 16 bits
Compression mode : Lossy
Stream size : 397 MiB (5%)
Title : Профессиональный (двухголосый закадровый)-R5 - "Премьер"
Language : Russian
Default : Yes
Forced : No
Audio #3
ID : 4
Format : AC-3
Format/Info : Audio Coding 3
Mode extension : CM (complete main)
Format settings, Endianness : Big
Codec ID : A_AC3
Duration : 2h 3mn
Bit rate mode : Constant
Bit rate : 448 Kbps
Channel count : 6 channels
Channel positions : Front: L C R, Side: L R, LFE
Sampling rate : 48.0 KHz
Bit depth : 16 bits
Compression mode : Lossy
Stream size : 397 MiB (5%)
Title : Профессиональный (двухголосый закадровый)-d2Lab
Language : Russian
Default : No
Forced : No
Text
ID : 5
Format : UTF-8
Codec ID : S_TEXT/UTF8
Codec ID/Info : UTF-8 Plain Text
Title : русские
Language : Russian
Default : No
Forced : No
Menu
00:00:00.000 : en:00:00:00.000
00:15:49.740 : en:00:15:49.740
00:16:53.638 : en:00:16:53.638
00:27:00.536 : en:00:27:00.536
00:29:03.450 : en:00:29:03.450
00:41:51.509 : en:00:41:51.509
00:47:45.696 : en:00:47:45.696
00:59:10.338 : en:00:59:10.338
01:09:28.748 : en:01:09:28.748
01:11:38.836 : en:01:11:38.836
01:17:04.411 : en:01:17:04.411
01:24:15.926 : en:01:24:15.926
01:29:25.986 : en:01:29:25.986
01:39:12.071 : en:01:39:12.071
01:53:08.782 : en:01:53:08.782
01:57:54.859 : en:01:57:54.859

x264

x264 [info]: frame I:1093 Avg QP:19.11 size:173609
x264 [info]: frame P:44021 Avg QP:21.82 size: 65663
x264 [info]: frame B:133039 Avg QP:23.53 size: 30290
[Профиль] [ЛС]
Показать сообщения:    

Текущее время: Сегодня 12:30

Часовой пояс: GMT



Вы не можете начинать темы
Вы не можете отвечать на сообщения
Вы не можете редактировать свои сообщения
Вы не можете удалять свои сообщения
Вы не можете голосовать в опросах
Вы не можете прикреплять файлы к сообщениям
Вы не можете скачивать файлы