Мирный воин / Peaceful Warrior (Виктор Сальва / Victor Salva) [2006, Германия, США, драма, мелодрама, спорт, BDRip-AVC] MVO (ТВ3) + Original Eng + Sub Rus, Eng

 
Автор Сообщение

TorrentFilm ®

Пол:

Стаж: 2 года

Сообщений: 7741



Награды: Нет

Торрент-статистика

Создавать темы 02-Апр-2016 00:09

[Цитировать]

Мирный воин / Peaceful Warrior Страна: Германия, США
Жанр: драма, мелодрама, спорт
Год выпуска: 2006
Продолжительность: 02:00:44-Перевод: Профессиональный (многоголосый закадровый) ТВ3
Оригинальная аудиодорожка: английский
Cубтитры: русские, английские-Режиссер: Виктор Сальва / Victor Salva-В ролях-Скотт Мехловиц, Ник Нолти, Эми Смарт, Тим ДиКей, Эштон Холмс, Пол Уэсли, Б.Дж. Бритт, Агнес Брукнер, Том Тарантини, Беатрис Розен-Описание-Дэн Миллмен - талантливый гимнаст колледжа, мечтающий о выступлении на Олимпийских играх. У него всё есть: награды, друзья по команде, быстрые мотоциклы, девушки и бесшабашные вечеринки.
Мир Дэна переворачивается с ног на голову, когда он встречает загадочного незнакомца по имени Сократ, у которого достаточно возможностей, чтоб открыть новый мир силы и понимания. После серьёзной травмы, с помощью Сократа и эфемерной молодой девушки по имени Джой, Ден понимает, что ему много чему ещё придется научиться...
-Качество видео: BDRip
Исходное видео: [url=viewtopic.php?t=4969311]BDRemux[/url]
Контейнер: MKV-Видео: AVC, ~3000 kbps, 1120х630 (16:9), 23,976 fps
Аудио: AC-3, 192 kbps, Dolby Digital, 2 (L,R) ch, 48 KHz |MVO|
Аудио: AC-3, 448 kbps, Dolby Digital, 3/2 (L,C,R,l,r) + LFE ch, 48 KHz |Оригинал|
Формат субтитров: softsub (SRT)-

MediaInfoх264

VIDEO ENCODING
------------------------------
Encoding video to: J:\Temp\0266.264
x264 Q18.8 1120x630 23.976fps (173865 frames)
avs4x26x.exe: -L x264_64.exe --crf 18.8 --preset placebo --profile high --level 4.1 --ref 14 --aq-mode 3 --aq-strength 0.7 --deblock -3:-3 --merange 64 --psy-rd 1.00:0.10 --vbv-maxrate 50000 --vbv-bufsize 62500 --me umh --no-mbtree --keyint 240 --colorprim bt709 --transfer bt709 --colormatrix bt709 --zones 164360,173865,q=35 --sar 1:1 --output "J:\Temp\0266.264" "J:\Temp\0266.avs"
raw [info]: 1120x630p 1:1 @ 24000/1001 fps (cfr)
x264 [info]: using SAR=1/1
x264 [warning]: DPB size (14 frames, 39200 mbs) > level limit (11 frames, 32768 mbs)
x264 [info]: using cpu capabilities: MMX2 SSE2Fast LZCNT
x264 [info]: profile High, level 4.1
x264 [info]: frame I:1055 Avg QP:16.24 size: 63258
x264 [info]: frame P:31797 Avg QP:18.09 size: 30841
x264 [info]: frame B:141013 Avg QP:20.08 size: 11827
x264 [info]: consecutive B-frames: 1.2% 1.1% 4.1% 10.2% 13.6% 48.0% 8.5% 3.3% 3.1% 1.7% 1.3% 1.1% 0.8% 0.6% 0.3% 0.2% 1.1%
x264 [info]: mb I I16..4: 7.5% 83.0% 9.5%
x264 [info]: mb P I16..4: 1.1% 13.5% 0.7% P16..4: 30.9% 34.3% 10.3% 0.6% 0.0% skip: 8.6%
x264 [info]: mb B I16..4: 0.1% 1.2% 0.1% B16..8: 35.9% 21.3% 3.0% direct: 5.8% skip:32.5% L0:46.9% L1:44.2% BI: 8.9%
x264 [info]: 8x8 transform intra:86.9% inter:68.0%
x264 [info]: direct mvs spatial:99.9% temporal:0.1%
x264 [info]: coded y,uvDC,uvAC intra: 83.4% 89.5% 76.6% inter: 25.4% 33.7% 11.1%
x264 [info]: i16 v,h,dc,p: 57% 11% 6% 26%
x264 [info]: i8 v,h,dc,ddl,ddr,vr,hd,vl,hu: 12% 6% 9% 9% 14% 13% 13% 12% 13%
x264 [info]: i4 v,h,dc,ddl,ddr,vr,hd,vl,hu: 14% 6% 11% 8% 14% 13% 12% 9% 11%
x264 [info]: i8c dc,h,v,p: 48% 19% 17% 16%
x264 [info]: Weighted P-Frames: Y:6.2% UV:3.5%
x264 [info]: ref P L0: 39.0% 7.6% 19.5% 7.2% 6.4% 4.3% 4.2% 2.2% 2.2% 1.7% 1.7% 1.3% 1.4% 1.2% 0.1% 0.0%
x264 [info]: ref B L0: 64.3% 13.8% 7.1% 3.8% 2.7% 2.3% 1.8% 1.1% 0.9% 0.9% 0.7% 0.4% 0.2%
x264 [info]: ref B L1: 91.3% 8.7%
x264 [info]: kb/s:2995.44
Полное имя : J:\Раздачи\Peaceful_Warrior_(2006)_BDRip_cw.mkv
Формат : Matroska
Версия формата : Version 2
Размер файла : 3,07 Гбайт
Продолжительность : 2 ч. 1 м.
Общий поток : 3628 Кбит/сек
Название фильма : Мирный воин / Peaceful Warrior (2006) [RGTru]
Дата кодирования : UTC 2016-04-01 06:09:32
Программа кодирования : mkvmerge v7.8.0 ('River Man') 32bit built on Apr 3 2015 12:11:22
Библиотека кодирования : libebml v1.3.1 + libmatroska v1.4.2
Видео
Идентификатор : 1
Формат : AVC
Формат/Информация : Advanced Video Codec
Профиль формата : High@L4.1
Параметр CABAC формата : Да
Параметр ReFrames формата : 14 кадров
Идентификатор кодека : V_MPEG4/ISO/AVC
Продолжительность : 2 ч. 1 м.
Битрейт : 2916 Кбит/сек
Ширина : 1120 пикселей
Высота : 630 пикселей
Соотношение сторон : 16:9
Режим частоты кадров : Постоянный
Частота кадров : 23,976 кадра/сек
Цветовое пространство : YUV
Субдискретизация насыщенности : 4:2:0
Битовая глубина : 8 бит
Тип развёртки : Прогрессивная
Бит/(Пиксели*Кадры) : 0.172
Размер потока : 2,47 Гбайт (80%)
Заголовок : Peaceful_Warrior_(2006)_BDRip_cw
Библиотека кодирования : x264 core 146 r2538 121396c
Настройки программы : cabac=1 / ref=14 / deblock=1:-3:-3 / analyse=0x3:0x133 / me=umh / subme=11 / psy=1 / psy_rd=1.00:0.10 / mixed_ref=1 / me_range=64 / chroma_me=1 / trellis=2 / 8x8dct=1 / cqm=0 / deadzone=21,11 / fast_pskip=0 / chroma_qp_offset=-3 / threads=4 / lookahead_threads=1 / sliced_threads=0 / nr=0 / decimate=1 / interlaced=0 / bluray_compat=0 / constrained_intra=0 / bframes=16 / b_pyramid=2 / b_adapt=2 / b_bias=0 / direct=3 / weightb=1 / open_gop=0 / weightp=2 / keyint=240 / keyint_min=23 / scenecut=40 / intra_refresh=0 / rc_lookahead=60 / rc=crf / mbtree=0 / crf=18.8 / qcomp=0.60 / qpmin=0 / qpmax=69 / qpstep=4 / vbv_maxrate=50000 / vbv_bufsize=62500 / crf_max=0.0 / nal_hrd=none / filler=0 / ip_ratio=1.40 / pb_ratio=1.30 / aq=3:0.70 / zones=164360,173865,q=35
Язык : English
Default : Да
Forced : Нет
Цветовой диапазон : Limited
Основные цвета : BT.709
Характеристики трансфера : BT.709
Коэффициенты матрицы : BT.709
Аудио #1
Идентификатор : 2
Формат : AC-3
Формат/Информация : Audio Coding 3
Расширение режима : CM (complete main)
Параметр Endianness формата : Big
Идентификатор кодека : A_AC3
Продолжительность : 2 ч. 1 м.
Вид битрейта : Постоянный
Битрейт : 192 Кбит/сек
Каналы : 2 канала
Расположение каналов : Front: L R
Частота : 48,0 КГц
Битовая глубина : 16 бит
Метод сжатия : С потерями
Размер потока : 166 Мбайт (5%)
Заголовок : MVO
Язык : Russian
Default : Да
Forced : Нет
Аудио #2
Идентификатор : 3
Формат : AC-3
Формат/Информация : Audio Coding 3
Расширение режима : CM (complete main)
Параметр Endianness формата : Big
Идентификатор кодека : A_AC3
Продолжительность : 2 ч. 1 м.
Вид битрейта : Постоянный
Битрейт : 448 Кбит/сек
Каналы : 6 каналов
Расположение каналов : Front: L C R, Side: L R, LFE
Частота : 48,0 КГц
Битовая глубина : 16 бит
Метод сжатия : С потерями
Размер потока : 388 Мбайт (12%)
Заголовок : Original
Язык : English
Default : Нет
Forced : Нет
Текст #1
Идентификатор : 4
Формат : UTF-8
Идентификатор кодека : S_TEXT/UTF8
Идентификатор кодека/Информация : UTF-8 Plain Text
Язык : Russian
Default : Нет
Forced : Нет
Текст #2
Идентификатор : 5
Формат : UTF-8
Идентификатор кодека : S_TEXT/UTF8
Идентификатор кодека/Информация : UTF-8 Plain Text
Язык : English
Default : Нет
Forced : Нет
Меню
00:00:00.000 : en:00:00:00.000
00:07:27.071 : en:00:07:27.071
00:17:37.681 : en:00:17:37.681
00:30:30.244 : en:00:30:30.244
00:44:47.684 : en:00:44:47.684
00:53:03.179 : en:00:53:03.179
01:03:58.458 : en:01:03:58.458
01:17:11.627 : en:01:17:11.627
01:27:20.859 : en:01:27:20.859
01:46:32.301 : en:01:46:32.301СкриншотыСравнение с исходником Рип- Исходник

Сравнение

Раздача:
[url=viewtopic.php?t=5196668]http://torrentfilm.net/forum/viewtopic.php?t=5196668[/url]
Сравнение:
http://screenshotcomparison.com/comparison/167570/picture:0-Плюс субтитры, плюс звук, скопирован с исходника
[Профиль] [ЛС]
Показать сообщения:    

Текущее время: Сегодня 16:25

Часовой пояс: GMT



Вы не можете начинать темы
Вы не можете отвечать на сообщения
Вы не можете редактировать свои сообщения
Вы не можете удалять свои сообщения
Вы не можете голосовать в опросах
Вы не можете прикреплять файлы к сообщениям
Вы не можете скачивать файлы