Мирный воин / Peaceful Warrior (Виктор Сальва / Victor Salva) [2006, Германия, США, драма, мелодрама, спорт, BDRip-AVC] MVO (ТВ3) + Original Eng + Sub Rus, Eng

 
Автор Сообщение

TorrentFilm ®

Пол:

Стаж: 2 года

Сообщений: 7741



Награды: Нет

Торрент-статистика

Создавать темы 12-Апр-2015 00:02

[Цитировать]

«There are no ordinary moments»Мирный воинPeaceful Warrior- Страна: Германия, США
Жанр: драма, мелодрама, спорт, биография
Год выпуска: 2006
Продолжительность: 02:01:12-Перевод: Профессиональный (многоголосый, закадровый) ТВ3
Оригинальная дорожка: Английский
Субтитры: русские, английские
Режиссер: Виктор Сальва / Victor Salva
В ролях:
Скотт Мехловиц (Dan Millman), Ник Нолти (Socrates), Эми Смарт (Joy), Тим ДиКей (Coach Garrick), Эштон Холмс (Tommy), Пол Уэсли (Trevor), Б.Дж. Бритт (Kyle), Агнес Брукнер (Susie), Том Тарантини (Thug with Gun), Беатрис Розен (Dory), Рэй Уайз (Doctor Hayden), Скотт Кодилл (Thug One)-Описание: Дэн Миллмен - талантливый гимнаст колледжа, мечтающий о выступлении на Олимпийских играх. У него всё есть: награды, друзья по команде, быстрые мотоциклы, девушки и бесшабашные вечеринки.
Мир Дэна переворачивается с ног на голову, когда он встречает загадочного незнакомца по имени Сократ, у которого достаточно возможностей, чтоб открыть новый мир силы и понимания. После серьёзной травмы, с помощью Сократа и эфемерной молодой девушки по имени Джой, Ден понимает, что ему много чему ещё придется научиться...-Знаете ли вы, что...
Фильм снят по мотивам романа Дэна Миллмана «Путь мирного воина» (Way of the Peaceful Warrior, 1980).-
MPAA: PG-13 - Детям до 13 лет просмотр не желателен
-Источник: BD-Remux HDCLUB
Качество: BDRip-AVC | Сэмпл
Контейнер: MKV
Видео: AVC x264, 1024x576 (1.778), 23.976 fps, 1 939 Kbps, 0.137 bit/pixel
Аудио №1: AC3, 48.0 KHz, 192 Kbps, 2 channels (mvo, ТВ3)
Аудио №2: AC3, 48.0 KHz, 448 Kbps, 6 channels (Оригинал)
Формат субтитров: softsub (SRT)
Навигация по главам: есть
-

Название

x264 / MediaInfo

-[Information] [25.03.2015 10:16:17] x264 [info]: frame I:1101  Avg QP:16.20  size: 54580
-[Information] [25.03.2015 10:16:17] x264 [info]: frame P:35320 Avg QP:19.42  size: 20464
-[Information] [25.03.2015 10:16:17] x264 [info]: frame B:137270 Avg QP:21.15  size:  7088
General
Unique ID                                : 197330145816503275826096806794561976489 (0x947467574C99737CA6A405699F3DF8A9)
Complete name                            : E:\peaceful.warrior.2006.bdrip-avc.mkv
Format                                   : Matroska
Format version                           : Version 4 / Version 2
File size                                : 2.18 GiB
Duration                                 : 2h 1mn
Overall bit rate                         : 2 573 Kbps
Movie name                               : Мирный воин / Peaceful Warrior (2006) egiko'z rip // do-it
Encoded by                               : egiko
Encoded date                             : UTC 2015-03-28 21:16:25
Writing application                      : mkvmerge v7.7.0 ('Six Voices') 64bit built on Feb 28 2015 23:39:33
Writing library                          : libebml v1.3.1 + libmatroska v1.4.2
DIRECTOR                                 : Victor Salva
DATE_RELEASED                            : 2006
SUMMARY                                  : «There are no ordinary moments.»
DURATION                                 : 01:49:19.099000000
NUMBER_OF_FRAMES                         : 1046
NUMBER_OF_BYTES                          : 34692
_STATISTICS_WRITING_APP                  : mkvmerge v7.7.0 ('Six Voices') 64bit built on Feb 28 2015 23:39:33
_STATISTICS_WRITING_DATE_UTC             : 2015-03-28 21:16:25
_STATISTICS_TAGS                         : BPS DURATION NUMBER_OF_FRAMES NUMBER_OF_BYTES
Attachment                               : Yes
Video
ID                                       : 1
Format                                   : AVC
Format/Info                              : Advanced Video Codec
Format profile                           : High@L4.0
Format settings, CABAC                   : Yes
Format settings, ReFrames                : 12 frames
Codec ID                                 : V_MPEG4/ISO/AVC
Duration                                 : 2h 1mn
Bit rate                                 : 1 939 Kbps
Width                                    : 1 024 pixels
Height                                   : 576 pixels
Display aspect ratio                     : 16:9
Frame rate                               : 23.976 fps
Color space                              : YUV
Chroma subsampling                       : 4:2:0
Bit depth                                : 8 bits
Scan type                                : Progressive
Bits/(Pixel*Frame)                       : 0.137
Stream size                              : 1.59 GiB (73%)
Title                                    : Peaceful Warrior
Writing library                          : x264 core 146 r2538kMod 121396c
Encoding settings                        : cabac=1 / ref=12 / deblock=1:-1:-1 / analyse=0x3:0x113 / me=umh / subme=10 / psy=1 / fade_compensate=0.00 / psy_rd=0.95:0.00 / mixed_ref=1 / me_range=32 / chroma_me=1 / trellis=2 / 8x8dct=1 / cqm=0 / deadzone=21,11 / fast_pskip=0 / chroma_qp_offset=-2 / threads=6 / lookahead_threads=1 / sliced_threads=0 / nr=0 / decimate=1 / interlaced=0 / bluray_compat=0 / constrained_intra=0 / fgo=0 / bframes=12 / b_pyramid=2 / b_adapt=2 / b_bias=0 / direct=3 / weightb=1 / open_gop=0 / weightp=2 / keyint=240 / keyint_min=23 / scenecut=40 / intra_refresh=0 / rc_lookahead=60 / rc=2pass / mbtree=0 / bitrate=1939 / ratetol=1.0 / qcomp=0.60 / qpmin=0 / qpmax=69 / qpstep=4 / cplxblur=20.0 / qblur=0.5 / vbv_maxrate=25000 / vbv_bufsize=25000 / nal_hrd=none / filler=0 / ip_ratio=1.40 / pb_ratio=1.30 / aq=2:0.60 / zones=164997,173690,q=40
Language                                 : English
Default                                  : Yes
Forced                                   : No
DURATION                                 : 02:00:44.362000000
NUMBER_OF_FRAMES                         : 173691
NUMBER_OF_BYTES                          : 1755859267
_STATISTICS_WRITING_APP                  : mkvmerge v7.7.0 ('Six Voices') 64bit built on Feb 28 2015 23:39:33
_STATISTICS_WRITING_DATE_UTC             : 2015-03-28 21:16:25
_STATISTICS_TAGS                         : BPS DURATION NUMBER_OF_FRAMES NUMBER_OF_BYTES
Audio #1
ID                                       : 2
Format                                   : AC-3
Format/Info                              : Audio Coding 3
Mode extension                           : CM (complete main)
Codec ID                                 : A_AC3
Duration                                 : 2h 1mn
Bit rate mode                            : Constant
Bit rate                                 : 192 Kbps
Channel(s)                               : 2 channels
Channel positions                        : Front: L R
Sampling rate                            : 48.0 KHz
Bit depth                                : 16 bits
Compression mode                         : Lossy
Stream size                              : 166 MiB (7%)
Title                                    : mvo, ТВ3
Language                                 : Russian
Default                                  : Yes
Forced                                   : No
Audio #2
ID                                       : 3
Format                                   : AC-3
Format/Info                              : Audio Coding 3
Mode extension                           : CM (complete main)
Codec ID                                 : A_AC3
Duration                                 : 2h 1mn
Bit rate mode                            : Constant
Bit rate                                 : 448 Kbps
Channel(s)                               : 6 channels
Channel positions                        : Front: L C R, Side: L R, LFE
Sampling rate                            : 48.0 KHz
Bit depth                                : 16 bits
Compression mode                         : Lossy
Stream size                              : 388 MiB (17%)
Title                                    : Оригинал
Language                                 : English
Default                                  : No
Forced                                   : No
Text #1
ID                                       : 4
Format                                   : UTF-8
Codec ID                                 : S_TEXT/UTF8
Codec ID/Info                            : UTF-8 Plain Text
Language                                 : Russian
Default                                  : No
Forced                                   : No
Text #2
ID                                       : 5
Format                                   : UTF-8
Codec ID                                 : S_TEXT/UTF8
Codec ID/Info                            : UTF-8 Plain Text
Language                                 : English
Default                                  : No
Forced                                   : No
Menu
00:00:00.000                             : en:00:00:00.000
00:07:27.071                             : en:00:07:27.071
00:17:37.681                             : en:00:17:37.681
00:30:30.244                             : en:00:30:30.244
00:44:47.684                             : en:00:44:47.684
00:53:03.179                             : en:00:53:03.179
01:03:58.458                             : en:01:03:58.458
01:17:11.627                             : en:01:17:11.627
01:27:20.859                             : en:01:27:20.859
01:46:32.301                             : en:01:46:32.301
[Профиль] [ЛС]

Создавать темы 06-Авг-2015 22:37 (спустя 3 месяца 24 дня)

Топик был перенесен из форума Фильмы до 2014 года в форум Фильмы до 2012 года
sergej644
 
Показать сообщения:    

Текущее время: Сегодня 00:10

Часовой пояс: GMT



Вы не можете начинать темы
Вы не можете отвечать на сообщения
Вы не можете редактировать свои сообщения
Вы не можете удалять свои сообщения
Вы не можете голосовать в опросах
Вы не можете прикреплять файлы к сообщениям
Вы не можете скачивать файлы