Мирная жизнь по законам военного времени. Специальный корреспондент (эфир 21/11/2014) (Александр Рогаткин) [2014, Документалистика, HDTV 1080i]

 
Автор Сообщение

TorrentFilm ®

Пол:

Стаж: 2 года

Сообщений: 7741



Награды: Нет

Торрент-статистика

Создавать темы 20-Дек-2014 02:00

[Цитировать]

Мирная жизнь по законам военного времени. Специальный корреспондент (эфир 21/11/2014)
Год выпуска: 2014
Страна: Россия
Студия: ВГТРК
Жанр: Документалистика
Продолжительность: 01:21:42
Перевод: Не требуется
Русские субтитры: нет
Режиссер: Александр Рогаткин
Описание: "Специальный корреспондент" - это популярная публицистическая программа, которая выходит на телеканале "Россия" с сентября 2002 года. Каждую неделю один из ведущих рассказывает в своем фильме-репортаже о какой-либо актуальной проблеме, существующей в современном обществе, посвящает зрительскую аудиторию в подробности наиболее значимых для страны и мира событий.
Сэмпл: http://multi-up.com/1014743
Тип релиза: HDTV 1080i
Контейнер: TS
Видео: AVC, 1920х1080, 16:9, 7816 Кбит/сек, 25 fps
Аудио: MPEG Audio, 224 Кбит/сек, 48 КГц, 2 канала

MediaInfo

ОбщееИдентификатор : 16 (0x10)Полное имя : The laws of war. Special correspondent_HD.tsФормат : MPEG-TSРазмер файла : 4,83 ГбайтПродолжительность : 1 ч. 21 м.Режим общего битрейта : ПеременныйОбщий поток : 8460 Кбит/сек
ВидеоИдентификатор : 1901 (0x76D)Идентификатор меню : 901 (0x385)Формат : AVCФормат/Информация : Advanced Video CodecПрофиль формата : High@L4.0Параметр CABAC формата : ДаПараметр ReFrames формата : 3 кадраПараметр GOP формата : M=4, N=32Идентификатор кодека : 27Продолжительность : 1 ч. 21 м.Битрейт : 7816 Кбит/секШирина : 1920 пикселейВысота : 1080 пикселейСоотношение сторон : 16:9Частота кадров : 25,000 кадров/секСтандарт вещания : PALЦветовое пространство : YUVСубдискретизация насыщенности : 4:2:0Битовая глубина : 8 битТип развёртки : ЧересстрочнаяПорядок развёртки : Верхнее поле первоеБит/(Пиксели*Кадры) : 0.151Размер потока : 4,46 Гбайт (92%)Основные цвета : BT.709Характеристики трансфера : BT.709Коэффициенты матрицы : BT.709
АудиоИдентификатор : 2901 (0xB55)Идентификатор меню : 901 (0x385)Формат : MPEG AudioВерсия формата : Version 1Профиль формата : Layer 2Идентификатор кодека : 4Продолжительность : 1 ч. 21 м.Вид битрейта : ПостоянныйБитрейт : 224 Кбит/секКаналы : 2 каналаЧастота : 48,0 КГцМетод сжатия : С потерямиЗадержка видео : 104 мс.Размер потока : 131 Мбайт (3%)Язык : stdЯзык, дополнительно : Clean effects

Скриншоты

[Профиль] [ЛС]
Показать сообщения:    

Текущее время: Сегодня 10:09

Часовой пояс: GMT



Вы не можете начинать темы
Вы не можете отвечать на сообщения
Вы не можете редактировать свои сообщения
Вы не можете удалять свои сообщения
Вы не можете голосовать в опросах
Вы не можете прикреплять файлы к сообщениям
Вы не можете скачивать файлы