Мираж (Алоиз Бренч) [1983, драма, приключения, DVB]

 
Автор Сообщение

reversefile ®

Пол:

Стаж: 4 года 5 месяцев

Сообщений: 842

Откуда: ReverseFile.org



Награды: Нет

Торрент-статистика

Создавать темы 25-Июл-2014 01:16

[Цитировать]

Мираж Жанр: драма, приключения
Год выпуска: 1983
Продолжительность: 01:07:05 + 01:09:44 + 01:02:11
Режиссёр: Алоиз Бренч
В ролях: Мирдза Мартинсоне, Мартиньш Вилсонс, Регимантас Адомайтис, Инт Буранс, Борис Иванов, Янис Клушс, Майя Эглите, Волдемар Шориньш, Карлис Зушманис, Арийс Гейкинс
Описание: По мотивам романа Дж. Х. Чейза «Весь мир в кармане». Оказавшись в жизненном тупике, герои фильма решаются на дерзкое преступление. Они верят, что большие деньги принесут им свободу и счастье.
Но обмануть насмешницу-судьбу не так-то просто — надежды оказываются призрачными, как мираж в пустыне.
Доп. информация: Запись со спутника телеканал "Звезда"
Сравнение с раздачей: http://torrentfilm.net/forum/viewtopic.php?t=3482377
http://screenshotcomparison.com/comparison/83838/picture:2

Семпл: http://multi-up.com/986806
Качество видео: DVB
Формат видео: TS
Видео: H.264, 720x576 (4:3), 25.00fps, 4750 Кбит/сек
Аудио: русский, MP2, 48000Hz, 192kbps

MediaInfo

Видео
Идентификатор : 224 (0xE0)
Идентификатор меню : 1 (0x1)
Формат : AVC
Формат/Информация : Advanced Video Codec
Профиль формата : Main@L3.1
Параметр CABAC формата : Да
Параметр ReFrames формата : 3 кадра
Идентификатор кодека : 27
Продолжительность : 1 ч. 7 м.
Вид битрейта : Постоянный
Битрейт : 4750 Кбит/сек
Ширина : 720 пикселей
Высота : 576 пикселей
Соотношение сторон : 4:3
Частота кадров : 25,000 кадров/сек
Стандарт вещания : PAL
Цветовое пространство : YUV
Субдискретизация насыщенности : 4:2:0
Битовая глубина : 8 бит
Тип развёртки : Прогрессивная
Бит/(Пиксели*Кадры) : 0.458
Размер потока : 2,21 Гбайт (91%)
Аудио
Идентификатор : 192 (0xC0)
Идентификатор меню : 1 (0x1)
Формат : MPEG Audio
Версия формата : Version 1
Профиль формата : Layer 2
Идентификатор кодека : 3
Продолжительность : 1 ч. 7 м.
Вид битрейта : Постоянный
Битрейт : 192 Кбит/сек
Каналы : 2 канала
Частота : 48,0 КГц
Метод сжатия : С потерями
Задержка видео : 8 мс.
Размер потока : 92,1 Мбайт (4%)

Скриншоты

[Профиль] [ЛС]

Создавать темы 06-Авг-2015 22:04 (спустя 1 год)

Топик был перенесен из форума Кино СССР в форум Кино СССР
sergej644
 
Показать сообщения:    

Текущее время: Сегодня 13:01

Часовой пояс: GMT



Вы не можете начинать темы
Вы не можете отвечать на сообщения
Вы не можете редактировать свои сообщения
Вы не можете удалять свои сообщения
Вы не можете голосовать в опросах
Вы не можете прикреплять файлы к сообщениям
Вы не можете скачивать файлы