Мираж - Концерт в Аяксе (2017) WEBRip 720p

 
Автор Сообщение

BOSS ®

Пол:

Стаж: 2 года 10 месяцев

Сообщений: 6714

Откуда: ODESSA



Награды: 20 (Подробнее)

Mega Releaser 3 (Количество: 1) Mega Seeder 5 (Количество: 1) Top Keeper 1 (Количество: 1)
Торрент-статистика

Создавать темы 01-Авг-2017 04:25

[Цитировать]

Исполнитель/Группа: Мираж
Жанр: POP
Год выпуска: 2017
Продолжительность: 01:08:32
Описание: Концерт группы "Мираж" в ресторане "АЯКС".Прозвучали как совсем новые песни,так и известные хиты.
Из-за запрета Валерия Соколова на исполнение его текстов две последние песни звучат на английском языке.
Музыка Андрея Литягина,Алексея Горбашова,Екатерины Болдышевой
Андрей Литягин (руководитель),
Екатерина Болдышева (вокал,клавишные),
Алексей Горбашов (гитара, бэк-вокал),
Андрей Гришин (ударные),
Сергей Крылов (клавишные)

Формат: MKV
Качество: WEBRip 720p
Видео кодек: H.264
Аудио кодек: AAC
Видео: H.264, ~3 000 Kbps, 1280 x 720 (16:9), 25fps
Аудио: AAC, 48000Hz, 2ch, 192 kbps

Треклист

1.Интро
2.Брось!
3.Я жду тебя
4.Звездный герой
5.Море грез
6.Дух ночи
7.Остров любви
8.Инструментал
9.Спи,моя печаль
10.Я снова вижу тебя
11.Тень
12.Звездная россыпь
13.Падал белый снег
14.Наступает ночь(на английском)
15.Музыка нас связала(на английском)

MedaInfo

Complete name : C:UsersMirage_2017.mkv
Format : Matroska
Format version : Version 4 / Version 2
File size : 1.54 GiB
Duration : 1 h 8 min
Overall bit rate : 3 217 kb/s
Encoded date : UTC 2017-08-01 01:05:01
Writing application : mkvmerge v8.3.0 ('Over the Horizon') 64bit
Writing library : libebml v1.3.1 + libmatroska v1.4.2
Video
ID : 1
Format : AVC
Format/Info : Advanced Video Codec
Format profile : Main@L4.1
Format settings, CABAC : Yes
Format settings, ReFrames : 4 frames
Codec ID : V_MPEG4/ISO/AVC
Duration : 1 h 8 min
Bit rate : 3 026 kb/s
Width : 1 280 pixels
Height : 720 pixels
Display aspect ratio : 16:9
Frame rate mode : Constant
Frame rate : 25.000 FPS
Standard : PAL
Color space : YUV
Chroma subsampling : 4:2:0
Bit depth : 8 bits
Scan type : Progressive
Bits/(Pixel*Frame) : 0.131
Stream size : 1.45 GiB (94%)
Language : English
Default : Yes
Forced : No
Color range : Limited
Color primaries : BT.709
Transfer characteristics : BT.709
Matrix coefficients : BT.709
Audio
ID : 2
Format : AAC
Format/Info : Advanced Audio Codec
Format profile : LC
Codec ID : A_AAC
Duration : 1 h 8 min
Bit rate : 192 kb/s
Channel(s) : 2 channels
Channel positions : Front: L R
Sampling rate : 48.0 kHz
Frame rate : 46.875 FPS (1024 spf)
Compression mode : Lossy
Stream size : 92.8 MiB (6%)
Language : English
Default : Yes
Forced : No

Скриншоты

[Профиль] [ЛС]
Показать сообщения:    

Текущее время: Сегодня 05:54

Часовой пояс: GMT



Вы не можете начинать темы
Вы не можете отвечать на сообщения
Вы не можете редактировать свои сообщения
Вы не можете удалять свои сообщения
Вы не можете голосовать в опросах
Вы не можете прикреплять файлы к сообщениям
Вы не можете скачивать файлы