Миньоны / Minions (2015) DVD9 | Custom

 
Автор Сообщение

BOSS ®

Пол:

Стаж: 2 года 2 месяца

Сообщений: 3751

Откуда: ODESSA



Награды: 20 (Подробнее)

Top Keeper 4 (Количество: 1) Mega Seeder 1 (Количество: 1) Mega Seeder 4 (Количество: 1)
Торрент-статистика

Создавать темы 18-Ноя-2015 12:13

[Цитировать]

«Ой, всё»

Год выпуска: 2015
Производство: США / Universal, Illumination Entertainment
Жанр: Мультфильм, комедия, семейный
Режиссеры: Кайл Балда, Пьер Коффан
Продюсеры: Джанет Хили, Кристофер Меледандри, Бретт Хоффман
Роли озвучивали: Сандра Буллок, Джон Хэмм, Майкл Китон, Эллисон Дженни, Стив Куган, Дженнифер Сондерс, Джеффри Раш, Стив Карелл, Пьер Коффан, Кэти Миксон
Описание фильма:
Миньоны живут на планете гораздо дольше нас. У них одна навязчивая идея — служить самой Гадкой личности из имеющихся в наличии. Динозавры, фараоны, Дракула, Наполеон — все они оказались недолговечны. И тогда миньоны рванули в Нью-Йорк. Их ждут деньги, власть, роковая суперзлодейка Скарлет Оверкилл и, конечно же, вкуснейшая «банана»! Во всяком случае, так им кажется.
Перевод: Дублированный
Субтитры: Английские, русские-Дата мировой премьеры: 11 июня 2015
Дата российской премьеры: 9 июля 2015, «UPI»
-Продолжительность: 01:27:10
Качество видео: DVD9
Видео: MPEG-2, 720x576@1024x576 (PAL 16:9), ~7400 Кбит/сек
Аудио 1: AC3 5.1, 384 Кбит/сек [Английский - оригинал]
Аудио 2: AC3 5.1, 448 Кбит/сек [Русский - дублированный]
Доп. материалы: Отсутствуют

DVDInfo:

Title: Minions (2015) DVD9 PAL
Size: 5.18 Gb ( 5 436 638,00 KBytes ) - DVD-9
Enabled regions: 1, 2, 3, 4, 5, 6, 7, 8
VTS_01 :
Play Length: 00:00:25
Video: PAL 16:9 (720x576) VBR, Auto Letterboxed
Audio:
English (Dolby AC3, 6 ch)
VTS_02 :
Play Length: 00:00:14
Video: PAL 16:9 (720x576) VBR, Auto Letterboxed
Audio:
English (Dolby AC3, 6 ch)
VTS_03 :
Play Length: 00:00:00
Video: PAL 16:9 (720x576) VBR, Auto Letterboxed
VTS_04 :
Play Length: 00:00:00
Video: PAL 16:9 (720x576) VBR, Auto Letterboxed
VTS_05 :
Play Length: 00:00:00
Video: PAL 16:9 (720x576) VBR, Auto Letterboxed
VTS_06 :
Play Length: 00:00:00
Video: PAL 16:9 (720x576) VBR, Auto Letterboxed
VTS_07 :
Play Length: 01:27:10
Video: PAL 16:9 (720x576) VBR, Auto Letterboxed
Audio:
English (Dolby AC3, 6 ch)
Russian (Dolby AC3, 6 ch)
Subtitles:
English
Russian
Russian
* Menus Information *
VIDEO_TS Menu
Video:
PAL 16:9 (720x576) VBR
Auto Pan&Scan
English Language Unit :
Title Menu
VTS_01 Menu
Video:
NTSC 4:3 (720x480) VBR
Auto Pan&Scan, Auto Letterboxed
English Language Unit :
Root Menu
VTS_02 Menu
Video:
NTSC 4:3 (720x480) VBR
Auto Pan&Scan, Auto Letterboxed
English Language Unit :
Root Menu
VTS_03 Menu
Video:
NTSC 4:3 (720x480) VBR
Auto Pan&Scan, Auto Letterboxed
English Language Unit :
Root Menu
VTS_04 Menu
Video:
NTSC 4:3 (720x480) VBR
Auto Pan&Scan, Auto Letterboxed
English Language Unit :
Root Menu
VTS_05 Menu
Video:
NTSC 4:3 (720x480) VBR
Auto Pan&Scan, Auto Letterboxed
English Language Unit :
Root Menu
VTS_06 Menu
Video:
NTSC 4:3 (720x480) VBR
Auto Pan&Scan, Auto Letterboxed
English Language Unit :
Root Menu
VTS_07 Menu
Video:
PAL 16:9 (720x576) VBR
Auto Letterboxed
Audio:
Not specified (Dolby AC3, 2 ch)
English Language Unit :
Root Menu
Subpicture Menu
Audio Menu
Angle menu
Chapter (PTT) Menu

MediaInfo:

Общее
Полное имя : F:ВидеоMinions (2015) DVD9 PALVIDEO_TSVTS_07_2.VOB
Формат : MPEG-PS
Размер файла : 1024 Мбайт
Продолжительность : 17 м.
Режим общего битрейта : Переменный
Общий поток : 8419 Кбит/сек
Видео
Идентификатор : 224 (0xE0)
Формат : MPEG Video
Версия формата : Version 2
Профиль формата : Main@Main
Параметр BVOP формата : Да
Параметр матрицы формата : Выборочная
Параметр GOP формата : Variable
Структура изображения : Frame
Продолжительность : 16 м.
Вид битрейта : Переменный
Битрейт : 7420 Кбит/сек
Максимальный битрейт : 9800 Кбит/сек
Ширина : 720 пикселей
Высота : 576 пикселей
Соотношение сторон : 16:9
Частота кадров : 25,000 кадров/сек
Стандарт вещания : PAL
Цветовое пространство : YUV
Субдискретизация насыщенности : 4:2:0
Битовая глубина : 8 бит
Тип развёртки : Чересстрочная
Порядок развёртки : Верхнее поле первое
Метод сжатия : С потерями
Бит/(Пиксели*Кадры) : 0.716
Временной код первого кадра : 01:17:03:01
Оригинал временного кода : Group of pictures header
Размер потока : 902 Мбайт (88%)
Аудио #1
Идентификатор : 189 (0xBD)-128 (0x80)
Формат : AC-3
Формат/Информация : Audio Coding 3
Расширение режима : CM (complete main)
Параметр Endianness формата : Big
Режим смешивания : DVD-Video
Продолжительность : 17 м.
Вид битрейта : Постоянный
Битрейт : 384 Кбит/сек
Каналы : 6 каналов
Расположение каналов : Front: L C R, Side: L R, LFE
Частота : 48,0 КГц
Битовая глубина : 16 бит
Метод сжатия : С потерями
Задержка видео : -664 мс.
Размер потока : 46,7 Мбайт (5%)
Аудио #2
Идентификатор : 189 (0xBD)-129 (0x81)
Формат : AC-3
Формат/Информация : Audio Coding 3
Расширение режима : CM (complete main)
Параметр Endianness формата : Big
Режим смешивания : DVD-Video
Продолжительность : 17 м.
Вид битрейта : Постоянный
Битрейт : 448 Кбит/сек
Каналы : 6 каналов
Расположение каналов : Front: L C R, Side: L R, LFE
Частота : 48,0 КГц
Битовая глубина : 16 бит
Метод сжатия : С потерями
Задержка видео : -664 мс.
Размер потока : 54,5 Мбайт (5%)
Текст #1
Идентификатор : 189 (0xBD)-32 (0x20)
Формат : RLE
Формат/Информация : Run-length encoding
Режим смешивания : DVD-Video
Продолжительность : 16 м.
Задержка видео : -400 мс.
Текст #2
Идентификатор : 189 (0xBD)-33 (0x21)
Формат : RLE
Формат/Информация : Run-length encoding
Режим смешивания : DVD-Video
Продолжительность : 16 м.
Задержка видео : 920 мс.
Меню

Доп. информация:

Исходником послужил лицензионный DVD9 из-за рубежа. Голландскую звуковую дорожку заменил на русскую вместе с субтитрами.
Предупреждающие надписи скрыл.
Использовались программы: MKVExtractGUI2, UsEac3To, SONY Vegas Pro, DVD ReMake Pro, PgcDemux, Adobe PhotoShop, MuxMan, Subtitle Workshop, MaestroSBT, DVDSubEdit.

Скриншоты меню:

Скриншоты:
[Профиль] [ЛС]
Показать сообщения:    

Текущее время: Сегодня 00:36

Часовой пояс: GMT



Вы не можете начинать темы
Вы не можете отвечать на сообщения
Вы не можете редактировать свои сообщения
Вы не можете удалять свои сообщения
Вы не можете голосовать в опросах
Вы не можете прикреплять файлы к сообщениям
Вы не можете скачивать файлы