Мимино (Георгий Данелия) [1977, СССР, Комедия, DVD9] + Sub Rus, Eng, Fra / Original Rus / RUSCICO

 
Автор Сообщение

TorrentFilm ®

Пол:

Стаж: 2 года

Сообщений: 7741



Награды: Нет

Торрент-статистика

Создавать темы 01-Янв-2016 00:18

[Цитировать]

Мимино / RUSCICO
Страна: СССР
Студия: Мосфильм, Грузия-фильмЖанр: Комедия
Год выпуска: 1977Продолжительность: 01:31:14
Производитель: RUSCICOCубтитры: Русские, Английские, Французские
Оригинальная аудиодорожка: Русский
Режиссер: Георгий Данелия
В ролях: Вахтанг Кикабидзе, Фрунзик Мкртчян, Елена Проклова, Евгений Леонов, Руслан Микаберидзе, Закро Сахвадзе, Марина Дюжева, Арчил Гомиашвили, Валентина Титова, Владимир БасовОписание: «Мимино» — по-грузински «сокол». Так называют друзья героя фильма, летчика Валико Мизандари, по воле режиссера то и дело попадающего в смешные, грустные, а порой драматические ситуации.
Работая в родном горном селении, Мимино перевозит на вертолете почту, фрукты, овец. Но он давно мечтает о настоящей, большой авиации. Наконец ему удается воплотить свою мечту в жизнь…
Бонусы: Интервью с А.Петрицким Фильмографии. Фотоальбом. Смотрите на DVD.
Меню: Русский, Английский,Французский, Анимированное, Озвученное Мимино на Википедии
Сэмпл: http://multi-up.com/912191
Тип релиза: DVD9
Контейнер: DVD-VideoФормат субтитров : prerendered (DVD/IDX+SUB)
Видео: PAL 4:3 (720x576) VBR, 7000 Кбит/сек, 25,000 кадров/сек
Аудио 1 : Русский: AC3, 6 ch, 48,0 КГц, 448 KbpsАудио 2 : Английский: AC3, 6 ch, 48,0 КГц, 448 KbpsАудио 3 : Французский: AC3, 6 ch, 48,0 КГц, 448 Kbps

Знаете ли вы, что...

Мимино в сердцах назвал свой вертолёт бабочкой, что по-грузински звучит как «пепела». Это же слово, но уже как «пепелац», Данелия использовал в фильме «Кин-дза-дза!» для обозначения подобного летательного аппарата.
Автомобиль 26-Б, как его называет Хачикян, на самом деле называется КрАЗ-256Б. Причём, судя по оранжевой окраске, Рубик получил автомобиль в северном (арктическом) исполнении.
«Кинопередвижка», показанная в начале фильма, реально действовала в тот период времени, и показанная в фильме аппаратура использовалась.
В одном из вырезанных эпизодов, когда Мимино и Рубик заходят в лифт гостиницы, там стоят два японца, похожие друг на друга как близнецы. Увидев входящих, японцы говорят друг другу по-японски (с русскими субтитрами): «Как все эти русские похожи друг на друга».
Также из фильма вырезаны сцены, связанные с одним из героев фильма — сельским кузнецом и полностью вырезан финал фильма, который пришлось перемонтировать.
В фильме есть эпизод, где Мимино купил в Западном Берлине подарок для своего друга Хачикяна и хотел позвонить ему в Дилижан. На переговорном пункте Мимино сказали, что у них такого города в списке нет. «А Телави?» — спросил Валико. «Есть». И его соединили с Тель-Авивом. В связи с отношением властей Советского Союза к Израилю этот эпизод мог рассматриваться как крамольный. Поэтому режиссёра вынудили изготовить одну копию фильма без разговора с Тель-Авивом для кинофестиваля, но в копиях для проката этот эпизод был оставлен. Другой эпизод, в котором эмигрант из Тель-Авива звонит Кукушу в Телави, вырезали без остатка.

Награды и номинации

Главный приз на МКФ в Авеллино в 1979 году.
ММКФ, 1977 год
Победитель :
Золотой приз

Dvd Info

Title: Mimino_DVDх9
Size: 6.66 Gb ( 6 985 314,00 KBytes ) - DVD-9
Enabled regions: 1, 2, 3, 4, 5, 6, 7, 8
VTS_01 :
Play Length: 00:00:40
Video: PAL 4:3 (720x576) VBR
Subtitles:
English
VTS_02 :
Play Length: 00:00:21
Video: PAL 4:3 (720x576) VBR
Audio:
English (Dolby AC3, 6 ch)
VTS_03 :
Play Length: 01:31:14+{01:31:14}
Video: PAL 4:3 (720x576) VBR
Audio:
Russian (Dolby AC3, 6 ch)
English (Dolby AC3, 6 ch)
Francais (Dolby AC3, 6 ch)
Subtitles:
Russian
English
Francais
VTS_04 :
Play Length: 00:02:38
Video: PAL 4:3 (720x576) VBR
Audio:
Russian (Dolby AC3, 2 ch)
English (Dolby AC3, 2 ch)
Francais (Dolby AC3, 2 ch)
VTS_05 :
Play Length: 00:01:18
Video: PAL 4:3 (720x576) VBR
Audio:
Russian (Dolby AC3, 6 ch)
VTS_06 :
Play Length: 00:12:42
Video: PAL 4:3 (720x576) VBR
Audio:
English (Dolby AC3, 1 ch)
Subtitles:
English
Francais

MediaInfo

Общее
Полное имя : M:\Mimino_DVDх9\VIDEO_TS\VTS_03_2.VOB
Формат : MPEG-PS
Размер файла : 1024 Мбайт
Продолжительность : 16 м.
Общий поток : 8544 Кбит/сек
Видео
Идентификатор : 224 (0xE0)
Формат : MPEG Video
Версия формата : Version 2
Профиль формата : Main@Main
Параметр BVOP формата : Да
Параметр матрицы формата : Выборочная
Параметр GOP формата : M=2, N=4
Продолжительность : 16 м.
Битрейт : 7000 Кбит/сек
Ширина : 720 пикселей
Высота : 576 пикселей
Соотношение сторон : 4:3
Частота кадров : 25,000 кадров/сек
Стандарт вещания : PAL
Цветовое пространство : YUV
Субдискретизация насыщенности : 4:2:0
Битовая глубина : 8 бит
Тип развёртки : Чересстрочная
Порядок развёртки : Верхнее поле первое
Метод сжатия : С потерями
Бит/(Пиксели*Кадры) : 0.675
Временной код первого кадра : 00:17:44:16
Оригинал временного кода : Group of pictures header
Размер потока : 842 Мбайт (82%)
Аудио #1
Идентификатор : 189 (0xBD)-128 (0x80)
Формат : AC-3
Формат/Информация : Audio Coding 3
Расширение режима : CM (complete main)
Параметр Endianness формата : Big
Режим смешивания : DVD-Video
Продолжительность : 16 м.
Вид битрейта : Постоянный
Битрейт : 448 Кбит/сек
Каналы : 6 каналов
Расположение каналов : Front: L C R, Side: L R, LFE
Частота : 48,0 КГц
Битовая глубина : 16 бит
Метод сжатия : С потерями
Задержка видео : -331 мс.
Размер потока : 53,7 Мбайт (5%)
Аудио #2
Идентификатор : 189 (0xBD)-129 (0x81)
Формат : AC-3
Формат/Информация : Audio Coding 3
Расширение режима : CM (complete main)
Параметр Endianness формата : Big
Режим смешивания : DVD-Video
Продолжительность : 16 м.
Вид битрейта : Постоянный
Битрейт : 448 Кбит/сек
Каналы : 6 каналов
Расположение каналов : Front: L C R, Side: L R, LFE
Частота : 48,0 КГц
Битовая глубина : 16 бит
Метод сжатия : С потерями
Задержка видео : -331 мс.
Размер потока : 53,7 Мбайт (5%)
Аудио #3
Идентификатор : 189 (0xBD)-130 (0x82)
Формат : AC-3
Формат/Информация : Audio Coding 3
Расширение режима : CM (complete main)
Параметр Endianness формата : Big
Режим смешивания : DVD-Video
Продолжительность : 16 м.
Вид битрейта : Постоянный
Битрейт : 448 Кбит/сек
Каналы : 6 каналов
Расположение каналов : Front: L C R, Side: L R, LFE
Частота : 48,0 КГц
Битовая глубина : 16 бит
Метод сжатия : С потерями
Задержка видео : -331 мс.
Размер потока : 53,7 Мбайт (5%)
Текст #1
Идентификатор : 189 (0xBD)-32 (0x20)
Формат : RLE
Формат/Информация : Run-length encoding
Режим смешивания : DVD-Video
Задержка видео : 4 с. 320 мс.
Текст #2
Идентификатор : 189 (0xBD)-33 (0x21)
Формат : RLE
Формат/Информация : Run-length encoding
Режим смешивания : DVD-Video
Задержка видео : 4 с. 320 мс.
Текст #3
Идентификатор : 189 (0xBD)-34 (0x22)
Формат : RLE
Формат/Информация : Run-length encoding
Режим смешивания : DVD-Video
Задержка видео : 4 с. 320 мс.

Скриншоты меню

Скриншоты

Скриншоты доп. материалов

Полиграфия

Уважаемые пользователи!Найдите пару минут поблагодарить релизера и высказаться в топике раздачи.Ваше мнение - бальзам для раздающего и пища для ума остальным пользователям.Мои раздачи
[Профиль] [ЛС]
Показать сообщения:    

Текущее время: Сегодня 12:49

Часовой пояс: GMT



Вы не можете начинать темы
Вы не можете отвечать на сообщения
Вы не можете редактировать свои сообщения
Вы не можете удалять свои сообщения
Вы не можете голосовать в опросах
Вы не можете прикреплять файлы к сообщениям
Вы не можете скачивать файлы