Мимино (Георгий Данелия) [1977, СССР, комедия, HDTVRip 720p] Sub Rus, Eng, Fre

 
Автор Сообщение

TorrentFilm ®

Пол:

Стаж: 2 года

Сообщений: 7741



Награды: Нет

Торрент-статистика

Создавать темы 16-Фев-2016 00:08

[Цитировать]

Мимино
Страна: СССР
Студия: Мосфильм
Жанр: Комедия
Год выпуска: 1977
Продолжительность: 01:31:10
Перевод: Не требуется
Cубтитры: русские, английские, французские.--Режиссер: Георгий Данелия--В ролях: Вахтанг Кикабидзе, Фрунзик Мкртчян, Елена Проклова, Евгений Леонов, Руслан Микаберидзе, Закро Сахвадзе, Марина Дюжева, Арчил Гомиашвили, Валентина Титова, Владимир Басов, Вадим Спиридонов.--Описание: «Мимино» — по-грузински «сокол». Так называют друзья героя фильма, летчика Валико Мизандари, по воле режиссера то и дело попадающего в смешные, грустные, а порой драматические ситуации.
Работая в родном горном селении, Мимино перевозит на вертолете почту, фрукты, овец. Но он давно мечтает о настоящей, большой авиации. Наконец ему удается воплотить свою мечту в жизнь…--Доп. информация: | IMDB | КиноПоиск | Сэмпл |--Тип релиза: HDTVRip 720p
Источник: Мимино (1977) 1080i HDTV MP2 H264
Контейнер: MKV
Видео: AVC, 988x720 25 fps, 6024 kbps, 0.339 bit/pixe
Аудио: AC3, 3/2 (L,C,R,l,r) + LFE ch, 48 kHz, 448 kbps avg
Формат субтитров: softsub (SRT)
MediaInfo">

Скриншоты MediaInfo


General
Unique ID : 206084600093169268257709665048887410810 (0x9B0A7342E7DD7FE2BA2FEC47C855C07A)
Complete name : Мимино (1977).mkv
Format : Matroska
Format version : Version 4 / Version 2
File size : 4.12 GiB
Duration : 1h 31mn
Overall bit rate : 6 474 Kbps
Movie name : Мимино 1977
Encoded date : UTC 2016-02-14 17:08:49
Writing application : mkvmerge v8.1.0 ('Psychedelic Postcard') 64bit
Writing library : libebml v1.3.1 + libmatroska v1.4.2
Cover : Yes
Attachments : cover.jpg
Video
ID : 1
Format : AVC
Format/Info : Advanced Video Codec
Format profile : High@L4.1
Format settings, CABAC : Yes
Format settings, ReFrames : 9 frames
Codec ID : V_MPEG4/ISO/AVC
Duration : 1h 31mn
Bit rate : 6 024 Kbps
Width : 988 pixels
Height : 720 pixels
Display aspect ratio : 1.372
Original display aspect rat : 1.371
Frame rate mode : Constant
Frame rate : 25.000 fps
Color space : YUV
Chroma subsampling : 4:2:0
Bit depth : 8 bits
Scan type : Progressive
Bits/(Pixel*Frame) : 0.339
Stream size : 3.84 GiB (93%)
Title : Мимино 1977
Writing library : x264 core 146 r2538kMod 121396c
Encoding settings : cabac=1 / ref=9 / deblock=1:-3:-3 / analyse=0x3:0x133 / me=umh / subme=10 / psy=1 / fade_compensate=0.00 / psy_rd=1.10:0.00 / mixed_ref=1 / me_range=32 / chroma_me=1 / trellis=2 / 8x8dct=1 / cqm=0 / deadzone=21,11 / fast_pskip=1 / chroma_qp_offset=-2 / threads=12 / lookahead_threads=2 / sliced_threads=0 / nr=0 / decimate=1 / interlaced=0 / bluray_compat=0 / constrained_intra=0 / fgo=0 / bframes=7 / b_pyramid=2 / b_adapt=2 / b_bias=0 / direct=3 / weightb=1 / open_gop=0 / weightp=2 / keyint=250 / keyint_min=25 / scenecut=40 / intra_refresh=0 / rc_lookahead=40 / rc=crf / mbtree=1 / crf=15.8000 / qcomp=0.70 / qpmin=0 / qpmax=40 / qpstep=4 / ip_ratio=1.25 / aq=1:0.70
Language : Russian
Default : Yes
Forced : No
Audio
ID : 2
Format : AC-3
Format/Info : Audio Coding 3
Mode extension : CM (complete main)
Format settings, Endianness : Big
Codec ID : A_AC3
Duration : 1h 31mn
Bit rate mode : Constant
Bit rate : 448 Kbps
Channel(s) : 6 channels
Channel positions : Front: L C R, Side: L R, LFE
Sampling rate : 48.0 KHz
Frame rate : 31.250 fps (1536 spf)
Compression mode : Lossy
Stream size : 292 MiB (7%)
Language : Russian
Default : Yes
Forced : No
Text #1
ID : 3
Format : UTF-8
Codec ID : S_TEXT/UTF8
Codec ID/Info : UTF-8 Plain Text
Duration : 1h 28mn
Bit rate : 58 bps
Count of elements : 524
Stream size : 38.0 KiB (0%)
Title : КП
Language : Russian
Default : No
Forced : No
Text #2
ID : 4
Format : UTF-8
Codec ID : S_TEXT/UTF8
Codec ID/Info : UTF-8 Plain Text
Duration : 1h 28mn
Bit rate : 63 bps
Count of elements : 807
Stream size : 41.3 KiB (0%)
Title : RUSCICO
Language : Russian
Default : No
Forced : No
Text #3
ID : 5
Format : UTF-8
Codec ID : S_TEXT/UTF8
Codec ID/Info : UTF-8 Plain Text
Duration : 1h 31mn
Bit rate : 38 bps
Count of elements : 827
Stream size : 25.5 KiB (0%)
Language : English
Default : No
Forced : No
Text #4
ID : 6
Format : UTF-8
Codec ID : S_TEXT/UTF8
Codec ID/Info : UTF-8 Plain Text
Duration : 1h 31mn
Bit rate : 43 bps
Count of elements : 828
Stream size : 29.1 KiB (0%)
Language : French
Default : No
Forced : No
Menu #1
00:00:00.000 : ru:1. Валико
00:07:55.520 : ru:2. Дома в Телави
00:12:59.120 : ru:3. Стюардесса Комарова
00:15:05.040 : ru:4. Сестра
00:20:12.320 : ru:5. Гиви Иванович
00:24:39.720 : ru:6. В Москве
00:26:39.720 : ru:7. Сосед по комнате
00:31:58.800 : ru:8. В ресторане
00:40:53.080 : ru:9. Самозванцы
00:45:30.000 : ru:10. "Машину украли!"
00:52:24.200 : ru:11. Старый знакомый
00:56:32.040 : ru:12. Суд
01:07:13.160 : ru:13. Прощание с другом
01:10:50.440 : ru:14. Волохов
01:17:39.640 : ru:15. Большая авиация
01:22:41.160 : ru:16. Домой
[Профиль] [ЛС]
Показать сообщения:    

Текущее время: Сегодня 01:10

Часовой пояс: GMT



Вы не можете начинать темы
Вы не можете отвечать на сообщения
Вы не можете редактировать свои сообщения
Вы не можете удалять свои сообщения
Вы не можете голосовать в опросах
Вы не можете прикреплять файлы к сообщениям
Вы не можете скачивать файлы