Мимино (Георгий Данелия) [1977, СССР, комедия, HDTV 1080i] + Original Rus

 
Автор Сообщение

TorrentFilm ®

Пол:

Стаж: 2 года

Сообщений: 7741



Награды: Нет

Торрент-статистика

Создавать темы 09-Июл-2015 00:07

[Цитировать]

Мимино
Страна: СССР
Жанр: комедия
Год выпуска: 1977
Продолжительность: 01:31:11
Перевод: Не требуется
Cубтитры: нет
Оригинальная аудиодорожка: русский
Режиссер: Георгий Данелия
В ролях: Вахтанг Кикабидзе, Фрунзик Мкртчян, Елена Проклова, Евгений Леонов, Руслан Микаберидзе, Закро Сахвадзе, Марина Дюжева, Арчил Гомиашвили, Валентина Титова, Владимир Басов, Вадим Спиридонов.
Описание: «Мимино» - по-грузински «сокол». Так называют друзья героя фильма, летчика Валико Мизандари, по воле режиссера то и дело попадающего в смешные, грустные, а порой драматические ситуации.
Работая в родном горном селении, Мимино перевозит на вертолете почту, фрукты, овец. Но он давно мечтает о настоящей, большой авиации. Наконец ему удается воплотить свою мечту в жизнь.

Сэмпл: http://sendfile.su/1134426
Тип релиза: HDTV 1080i
Контейнер: TS
Видео: 1920 x 1080i (16:9) 25 fps, AVC Main@L4.0~ 11922 kbps, 0.222 bit/pixel
Аудио 1: AC-3, 6 канала, 48,0 КГц, ~384 kbps
Аудио 2: MP2, 2 канала, 48,0 КГц, ~192 kbps
Релиз :

MediaInfo

Общее
Идентификатор : 1 (0x1)
Полное имя : D:\MIMINO\Mimino.1977.HDTV 1080i.ts
Формат : MPEG-TS
Размер файла : 8,12 Гбайт
Продолжительность : 1 ч. 31 м.
Режим общего битрейта : Переменный
Общий поток : 12,7 Мбит/сек
Видео
Идентификатор : 2141 (0x85D)
Идентификатор меню : 21004 (0x520C)
Формат : AVC
Формат/Информация : Advanced Video Codec
Профиль формата : Main@L4.0
Параметр CABAC формата : Да
Параметр ReFrames формата : 3 кадра
Идентификатор кодека : 27
Продолжительность : 1 ч. 31 м.
Битрейт : 11,5 Мбит/сек
Ширина : 1920 пикселей
Высота : 1080 пикселей
Соотношение сторон : 16:9
Частота кадров : 25,000 кадров/сек
Стандарт вещания : Component
Цветовое пространство : YUV
Субдискретизация насыщенности : 4:2:0
Битовая глубина : 8 бит
Тип развёртки : Чересстрочная
Порядок развёртки : Верхнее поле первое
Бит/(Пиксели*Кадры) : 0.222
Размер потока : 7,34 Гбайт (90%)
Основные цвета : BT.709
Характеристики трансфера : BT.709
Коэффициенты матрицы : BT.709
colour_range : Limited
Аудио #1
Идентификатор : 2142 (0x85E)
Идентификатор меню : 21004 (0x520C)
Формат : AC-3
Формат/Информация : Audio Coding 3
Расширение режима : CM (complete main)
Параметр Endianness формата : Big
Идентификатор кодека : 6
Продолжительность : 1 ч. 31 м.
Вид битрейта : Постоянный
Битрейт : 384 Кбит/сек
Каналы : 6 каналов
Расположение каналов : Front: L C R, Side: L R, LFE
Частота : 48,0 КГц
Битовая глубина : 16 бит
Метод сжатия : С потерями
Задержка видео : -80 мс.
Размер потока : 250 Мбайт (3%)
Язык : Russian
Аудио #2
Идентификатор : 2143 (0x85F)
Идентификатор меню : 21004 (0x520C)
Формат : MPEG Audio
Версия формата : Version 1
Профиль формата : Layer 2
Идентификатор кодека : 3
Продолжительность : 1 ч. 31 м.
Вид битрейта : Постоянный
Битрейт : 192 Кбит/сек
Каналы : 2 канала
Частота : 48,0 КГц
Метод сжатия : С потерями
Задержка видео : -80 мс.
Размер потока : 125 Мбайт (2%)
Язык : Russian

Скриншоты

[Профиль] [ЛС]
Показать сообщения:    

Текущее время: Сегодня 14:25

Часовой пояс: GMT



Вы не можете начинать темы
Вы не можете отвечать на сообщения
Вы не можете редактировать свои сообщения
Вы не можете удалять свои сообщения
Вы не можете голосовать в опросах
Вы не можете прикреплять файлы к сообщениям
Вы не можете скачивать файлы