Милый дом / Sweet Home (2015) HDRip | L

 
Автор Сообщение

достали все ®

Пол:

Стаж: 1 год 8 месяцев

Сообщений: 6570



Награды: 12 (Подробнее)

Mega Seeder 2 (Количество: 1) За внесенный вклад в развитие сайта (Количество: 1) Top Releaser 2 (Количество: 1)
Торрент-статистика

Создавать темы 01-Окт-2015 13:59

[Цитировать]

Милый дом / Sweet Home (2015) HDRip - Производство: Испания, Польша | Castelao Pictures, Film Produkcja
Жанр: Ужасы
Режиссер: Рафаэль Мартинес
Продюсер: Валентина Чидичино, Станислав Дзедзиц, Карлос Фернандес
Актеры: Ингрид Гарсия Йонсон, Бруно Севилья, Хосе Мария Бланко, Люка Перос, Эдуардо Льоверас, Мигель Анхель Аларкон, Мариона Перрье, Oriol Tarrida
Описание:
Молодая пара решает провести романтический вечер на этаже полузаброшенного здания, в которое им открыт доступ, так как девушка работает консультантом по недвижимости при городском совете и имеет при себе ключи. Но вместо приятного отдыха они натыкаются на то, что несколько человек в масках убивают единственного арендатора, находящегося в здании. .. и теперь они сами становятся их мишенью.

Дата мировой премьеры: 8 мая 2015
Релиз от: FAGOT100
Продолжительность: 01:20:23
Качество видео: HDRip
Перевод: Многоголосый закадровый, любительский
Озвучка / Автор перевода: Qwerty
Субтитры: отсутствуют
Видео: MPEG4, XviD, 720x304 (2.35:1), 24.000 fps, 1 154 Kbps (0.220 bit/pixel)
Аудио: MP3, 44.1 KHz, 2 ch, 128 Kbps, CBR
Сэмпл

Mediainfo:

Формат : AVI
Формат/Информация : Audio Video Interleave
Размер файла : 742 Мбайт
Продолжительность : 1 ч. 20 м.
Общий поток : 1291 Кбит/сек
Программа кодирования : VirtualDubMod 1.5.10.3 | www.virtualdub-fr.org || (build 2550/release)
Библиотека кодирования : VirtualDubMod build 2550/release
Видео
Идентификатор : 0
Формат : MPEG-4 Visual
Профиль формата : Advanced Simple@L5
Параметр BVOP формата : 1
Параметр QPel формата : Нет
Параметр GMC формата : Без точки перехода
Параметр матрицы формата : Default (MPEG)
Идентификатор кодека : XVID
Идентификатор кодека/Подсказка : XviD
Продолжительность : 1 ч. 20 м.
Битрейт : 1154 Кбит/сек
Ширина : 720 пикселей
Высота : 304 пикселя
Соотношение сторон : 2,35:1
Частота кадров : 24,000 кадра/сек
Цветовое пространство : YUV
Субдискретизация насыщенности : 4:2:0
Битовая глубина : 8 бит
Тип развёртки : Прогрессивная
Метод сжатия : С потерями
Бит/(Пиксели*Кадры) : 0.220
Размер потока : 663 Мбайт (89%)
Библиотека кодирования : XviD 73
Аудио
Идентификатор : 1
Формат : MPEG Audio
Версия формата : Version 1
Профиль формата : Layer 3
Идентификатор кодека : 55
Идентификатор кодека/Подсказка : MP3
Продолжительность : 1 ч. 20 м.
Вид битрейта : Постоянный
Битрейт : 128 Кбит/сек
Каналы : 2 канала
Частота : 44,1 КГц
Метод сжатия : С потерями
Размер потока : 73,6 Мбайт (10%)
Выравнивание : Разделение по промежуткам
Продолжительность промежутка : 42 мс. (1,00 видеокадр)
Время предзагрузки промежутка : 500 мс.
Библиотека кодирования : LAME3.99r
Настройки программы : -m s -V 4 -q 2 -lowpass 17 -b 128
Скриншоты:
[Профиль] [ЛС]
Показать сообщения:    

Текущее время: Сегодня 12:39

Часовой пояс: GMT



Вы не можете начинать темы
Вы не можете отвечать на сообщения
Вы не можете редактировать свои сообщения
Вы не можете удалять свои сообщения
Вы не можете голосовать в опросах
Вы не можете прикреплять файлы к сообщениям
Вы не можете скачивать файлы