Милош Бранкович / Milos Brankovic (Небойша Радосавльевич / Nebojsa Radosavljevic) [2008, Сербия, Триллер, DVDRip] Sub Rus

 
Автор Сообщение

reversefile ®

Пол:

Стаж: 4 года 5 месяцев

Сообщений: 842

Откуда: ReverseFile.org



Награды: Нет

Торрент-статистика

Создавать темы 13-Авг-2014 10:04

[Цитировать]

Милош Бранкович / Milos Brankovic
Страна: Сербия
Жанр: Триллер
Год выпуска: 2008
Продолжительность: 1:28:27
Перевод: Субтитры gordana75
Cубтитры: русские
Оригинальная аудиодорожка: сербская
Режиссер: Небойша Радосавльевич / Nebojsa Radosavljevic
В ролях: Милош Влалукин, Йована Стипич, Небойша Милованович, Петар Божович, Борис Комненич, Лена Богданович
Описание: Это история о преступлении, наказании и справедливости. Милош Бранкович - обычный молодой человек, который просто хочет стать успешным архитектором и любить свою девушку Александру. Без всякой причины он становится предметом домогательств уличной банды и жертвой мошенничества. Его жизнь превращается в кошмар... Пытаясь дать отпор, он убивает несколько человек. Кто же такой Милош Бранкович? Убийца или борец за справедливость? Жесткая история о не менее жёстком времени в Сербии начала 21-го века.
http://www.imdb.com/title/tt0930868/
Сэмпл: http://multi-up.com/
Качество видео: DVDRip
Формат видео: AVI
Видео: XviD, 720*400, 16:9, 25.000 fps, 2 006 Kbps
Аудио: MPEG Audio 3 Layer 1, 48.0 KHz, 192 Kbps, 2 channels
Формат субтитров: softsub (SRT)

MediaInfo

General
Complete name : /home/marriedtosea/tor/Ko je Milos Brankovic (2008).avi
Format : AVI
Format/Info : Audio Video Interleave
File size : 1.36 GiB
Duration : 1h 28mn
Overall bit rate : 2 208 Kbps
Writing application : VirtualDubMod 1.5.10.2 (build 2540/release)
Writing library : VirtualDub build 32842/release
Video
ID : 0
Format : MPEG-4 Visual
Format profile : Advanced Simple@L5
Format settings, BVOP : 2
Format settings, QPel : Yes
Format settings, GMC : No warppoints
Format settings, Matrix : Default (MPEG)
Muxing mode : Packed bitstream
Codec ID : XVID
Codec ID/Hint : XviD
Duration : 1h 28mn
Bit rate : 2 006 Kbps
Width : 720 pixels
Height : 400 pixels
Display aspect ratio : 16:9
Frame rate : 25.000 fps
Color space : YUV
Chroma subsampling : 4:2:0
Bit depth : 8 bits
Scan type : Progressive
Compression mode : Lossy
Bits/(Pixel*Frame) : 0.279
Stream size : 1.24 GiB (91%)
Writing library : XviD 64
Audio
ID : 1
Format : MPEG Audio
Codec ID : 55
Codec ID/Hint : MP3
Duration : 1h 28mn
Bit rate : 192 Kbps
Channel(s) : 2 channels
Sampling rate : 48.0 KHz
Compression mode : Lossy
Stream size : 121 MiB (9%)
Alignment : Split accross interleaves
Interleave, duration : 40 ms (1.00 video frame)
Interleave, preload duration : 500 ms

Скриншот c названием фильма

Скриншоты




Фрагмент субтитров

2
00:01:28,580 --> 00:01:33,370
Меня зовут Милош Бранкович.
Я родился в Белграде в 1977 г.
3
00:01:33,540 --> 00:01:37,613
Счастливое детство под санкциями.
4
00:01:37,780 --> 00:01:42,615
Я учился и закончил архитектуру
через 2 года после бомбардировок.
5
00:01:43,100 --> 00:01:46,649
Даже когда ты будешь снимать
меня через 5 лет,
6
00:01:46,820 --> 00:01:50,972
я уверен, что и у меня будет несколько
объектов - и это здесь!
7
00:01:52,260 --> 00:01:53,932
Это мой город!
8
00:01:59,420 --> 00:02:03,208
Я была в Праге и Лондоне,
9
00:02:03,660 --> 00:02:07,653
Прошла через Афины,
Вену и Рим,
10
00:02:07,900 --> 00:02:15,250
Я видела Неаполь и Верону,
ярким солнцем освещенный Крым.
11
00:02:16,660 --> 00:02:20,653
Я смотрела на роскошь
и богатство,
12
00:02:21,020 --> 00:02:24,933
много чар я встретила тогда.
13
00:02:25,260 --> 00:02:29,253
Но нигде, нигде
не нашла,
14
00:02:29,580 --> 00:02:33,414
того, что есть у моего
любимого города.
15
00:02:33,700 --> 00:02:42,096
У моего Белграда есть сердце,
и в сердце чистая любовь,
16
00:02:42,700 --> 00:02:47,137
Белград руки протягивает всем,
17
00:02:47,500 --> 00:02:51,652
всем дает одинаковую радость.
18
00:02:51,820 --> 00:02:55,733
Я восхищаюсь
чарами Парижа,
19
00:02:55,900 --> 00:02:59,688
Прага всегда будет
золотым городом.
20
00:03:12,500 --> 00:03:17,699
Чупа-чупс, отныне ты сам
убиваешь своих путан.
21
00:03:22,860 --> 00:03:26,296
Убьешь первую и больше
мне не звонишь!
22
00:03:26,460 --> 00:03:28,655
Что ты это делаешь!?
[Профиль] [ЛС]

Создавать темы 06-Авг-2015 23:18 (спустя 11 месяцев 24 дня)

Топик был перенесен из форума Фильмы до 2014 года в форум Фильмы до 2012 года
sergej644
 

Создавать темы 12-Июн-2016 08:50 (спустя 1 год 9 месяцев)

Топик был перенесен из форума Фильмы 2011 года в форум Фильмы 2006-2008 года
Russian Mafia
 
Показать сообщения:    

Текущее время: Сегодня 20:23

Часовой пояс: GMT



Вы не можете начинать темы
Вы не можете отвечать на сообщения
Вы не можете редактировать свои сообщения
Вы не можете удалять свои сообщения
Вы не можете голосовать в опросах
Вы не можете прикреплять файлы к сообщениям
Вы не можете скачивать файлы