Миллионер (Витольд Бордзиловский, Юрий Прытков) [1963, короткометражный мультфильм, DVDRip] Eng hardsub

 
Автор Сообщение

TorrentFilm ®

Пол:

Стаж: 2 года

Сообщений: 7741



Награды: Нет

Торрент-статистика

Создавать темы 06-Окт-2015 00:10

[Цитировать]

Миллионер-Страна: СССР
Жанр: короткометражный мультфильм
Продолжительность: 00:09:54
Год выпуска: 1963
Русские субтитры: нет-Режиссёры: Витольд Бордзиловский, Юрий Прытков- | Релиз: -Описание: Политический памфлет об агрессивности капитализма. Включён в киноальманах «Большой фитиль», 1964 г.-Качество: DVDRip
Формат: AVI
Видео: 640x480 (1.33:1), 25 fps, XviD MPEG-4 ~2087 kbps avg, 0.27 bit/pixel
Аудио: 48 kHz, AC3 Dolby Digital, 2/0 (L,R) ch, ~224 kbps
Субтитры: английские вшитые (hardsub)

MediaInfo

GeneralComplete name : Миллионер.1963.XviD.AC3-rutracker.aviFormat : AVIFormat/Info : Audio Video InterleaveFile size : 165 MiBDuration : 9mn 54sOverall bit rate : 2 322 KbpsMovie name : Миллионер.1963.XviD.AC3-rutrackerWriting application : VirtualDubMod 1.5.10.2 (build 2542/release)Comment : РГ Мультфильмы / Rutracker.org
VideoID : 0Format : MPEG-4 VisualFormat profile : Advanced Simple@L5Format settings, BVOP : 2Format settings, QPel : NoFormat settings, GMC : No warppointsFormat settings, Matrix : CustomCodec ID : XVIDCodec ID/Hint : XviDDuration : 9mn 54sBit rate : 2 088 KbpsWidth : 640 pixelsHeight : 480 pixelsDisplay aspect ratio : 4:3Frame rate : 25.000 fpsColor space : YUVChroma subsampling : 4:2:0Bit depth : 8 bitsScan type : ProgressiveCompression mode : LossyBits/(Pixel*Frame) : 0.272Stream size : 148 MiB (90%)Writing library : XviD 65
AudioID : 1Format : AC-3Format/Info : Audio Coding 3Mode extension : CM (complete main)Format settings, Endianness : BigCodec ID : 2000Duration : 9mn 54sBit rate mode : ConstantBit rate : 224 KbpsChannel(s) : 2 channelsChannel positions : Front: L RSampling rate : 48.0 KHzCompression mode : LossyStream size : 15.9 MiB (10%)Alignment : Split accross interleavesInterleave, duration : 40 ms (1.00 video frame)Interleave, preload duration : 500 ms

Скриншоты

[Профиль] [ЛС]
Кто просматривает тему:

Форум Тема Автор Размер
Viasat History Viasat History: Американские принцессы на миллион долларов / Million Dollar American Princesses [сезон 2 серии 1-3 из 4] (Ian Lilley) [2015 г., Документальный, игровой, биографический, история,... skorpionN 1.94 GB
Apple, iOS, iPad, iPhone [iPad] Миллион способов потерять голову / A Million Ways to Die in the West (Сет МакФарлейн / Seth MacFarlane ) [2014, США, Комедия, вестерн, HDRip, SD (576p)] DUB + Original sergej644 1.98 GB
Фильмы 2016 года Выкуп миллиард / Billionaire Ransom / Take Down (2016) HDRip | L BOSS 1.37 GB
Фильмы 2016 года Выкуп миллиард / Billionaire Ransom / Take Down (2016) HDRip | L1 достали все 1.46 GB
Фильмы (HD DVD, Blu-ray и BDRemux) Дьявольский / The Diabolical (Алистер Легранд / Alistair Legrand) [2015, США, ужасы, фантастика, триллер, BDRemux 1080p] VO (Миллиган) + Sub Eng + Original Eng Russian Mafia 19.34 GB
Кулинария Журнал | Миллион Меню №43 (август 2015) [PDF] достали все 2 MB
Кино СССР Игра на миллионы (Геннадий Байсак) [1991, криминальная комедия, DVB] reversefile 3.36 GB
Фильмы (HD Rips | 720p, 1080p) Как поднять миллион. Исповедь Z@drota (2014) WEB-DL 1080p достали все 2.62 GB
Показать сообщения:    

Текущее время: Сегодня 12:33

Часовой пояс: GMT



Вы не можете начинать темы
Вы не можете отвечать на сообщения
Вы не можете редактировать свои сообщения
Вы не можете удалять свои сообщения
Вы не можете голосовать в опросах
Вы не можете прикреплять файлы к сообщениям
Вы не можете скачивать файлы