Миллионер из трущоб / Slumdog Millionaire (Дэнни Бойл / Danny Boyle, Лавлин Тандан / Loveleen Tandan) [2008, Великобритания, драма, мелодрама, BDRip-AVC] Dub + AVO (Ю. Сербин) + Sub Rus, Eng + Original Eng

 
Автор Сообщение

TorrentFilm ®

Пол:

Стаж: 2 года

Сообщений: 7741



Награды: Нет

Торрент-статистика

Создавать темы 24-Мар-2016 00:08

[Цитировать]

Миллионер из трущоб
Slumdog Millionaire
«Что может вернуть любовь?»
- Страна: Великобритания
Жанр: драма, мелодрама
Год выпуска: 2008
Продолжительность: 02:00:04
Перевод: Профессиональный (дублированный)
Перевод 2: Авторский (одноголосый закадровый) Ю. Сербин
Cубтитры: Rus. Eng
Оригинальная аудиодорожка: английский-Режиссер
Дэнни Бойл / Danny Boyle
Лавлин Тандан / Loveleen Tandan
-В ролях:
Дев Патель | Dev Patel
Фрида Пинто | Freida Pinto

Саурабх Шукла, Анил Капур, Рахендранат Зутши, Женева Талвар, Ирфан Кхан, Ажаруддин Мохаммед Измаил, Аюш Махеш Кхедекар, Жира Банжара-ОписаниеДжамал Малик, 18-летний сирота из трущоб в Мумбаи, всего в одном шаге от победы в телеигре «Кто хочет стать миллионером?» и выигрыша 20 миллионов рупий. Прервав игру, его арестовывает полиция по подозрению в мошенничестве. Откуда юнец, выросший на улице, может знать так много? На допросе в полиции Джамал рассказывает печальную историю своей жизни: о пережитых приключениях вместе с братом, о стычках с местными бандами, о своей трагической любви. Каждая глава личной истории удивительным образом дала ему ответы на вопросы телевикторины. Когда игру возобновят, инспектору полиции и шестидесяти миллионам зрителей захочется выяснить ответ только на один вопрос: зачем этот юноша, без явного стремления к богатству, решил принять участие в телепрограмме?-Cэмпл

IMDb: 8.00 (623 978)

Оскар, 2009 год
Победитель (8):
Лучший фильм
Лучший режиссер ( Дэнни Бойл )
Лучший адаптированный сценарий
Лучшая работа оператора
Лучший звук
Лучший монтаж
Лучшая песня — «Jai Ho»
Лучший саундтрек

Золотой глобус, 2009 год
Победитель (4):
Лучший фильм (драма)
Лучший режиссер ( Дэнни Бойл )
Лучший сценарий
Лучший саундтрек

=============
Awards
Качество видео: BDRip-AVC Blu-Ray Remux (1080p) kinozal
Формат видео: MKV
Видео: AVC 4135 Kbps 1136 x 474 (2.397) 23.976 fps
Аудио 1: AC-3 448 Kbps 6 channels, 48.0 KHz DUB
Аудио 2: C-3 448 Kbps 6 channels, 48.0 KHz AVO Ю. Сербин
Аудио 3: C-3 448 Kbps 6 channels, 48.0 KHz Eng

MediaInfo | LogLog

x264 [info]: frame I:1307 Avg QP:18.01 size: 74730
x264 [info]: frame P:38440 Avg QP:19.60 size: 37972
x264 [info]: frame B:132981 Avg QP:21.54 size: 17041
x264 [info]: consecutive B-frames: 2.8% 3.3% 8.2% 18.4% 16.3% 37.8% 6.5% 1.3% 1.8% 1.1% 0.6% 0.4% 0.5% 0.3% 0.3%
x264 [info]: mb I I16..4: 5.8% 79.8% 14.3%
x264 [info]: mb P I16..4: 0.9% 22.3% 1.7% P16..4: 26.2% 31.7% 11.9% 1.1% 0.1% skip: 4.0%
x264 [info]: mb B I16..4: 0.1% 3.2% 0.2% B16..8: 37.8% 22.9% 5.4% direct: 7.9% skip:22.5% L0:46.6% L1:44.0% BI: 9.4%
x264 [info]: 8x8 transform intra:89.5% inter:63.7%
x264 [info]: direct mvs spatial:100.0% temporal:0.0%
x264 [info]: coded y,uvDC,uvAC intra: 93.5% 89.5% 75.2% inter: 37.6% 43.6% 18.3%
x264 [info]: i16 v,h,dc,p: 32% 18% 5% 45%
x264 [info]: i8 v,h,dc,ddl,ddr,vr,hd,vl,hu: 7% 6% 12% 11% 14% 13% 13% 11% 13%
x264 [info]: i4 v,h,dc,ddl,ddr,vr,hd,vl,hu: 12% 7% 4% 9% 16% 15% 14% 11% 12%
x264 [info]: i8c dc,h,v,p: 48% 19% 15% 18%
x264 [info]: Weighted P-Frames: Y:4.9% UV:3.7%
x264 [info]: ref P L0: 40.7% 8.9% 19.2% 7.4% 6.4% 4.3% 4.4% 2.2% 2.2% 2.0% 1.9% 0.3% 0.0%
x264 [info]: ref B L0: 62.3% 14.4% 7.9% 4.6% 3.2% 2.7% 2.4% 1.4% 0.8% 0.4%
x264 [info]: ref B L1: 90.9% 9.1%
x264 [info]: kb/s:4245.81
x264 [total]: encoded 172728 frames, 7.76 fps, 4245.81 kb/s, duration 6:11:02.90
Format : Matroska
Format version : Version 4 / Version 2
File size : 4.69 GiB
Duration : 2h 0mn
Overall bit rate : 5 590 Kbps
Encoded date : UTC 2016-03-22 21:10:30
Writing application : mkvmerge v6.7.0 ('Back to the Ground') 32bit built on Jan 8 2014 15:03:17
Writing library : libebml v1.3.0 + libmatroska v1.4.1
Video
ID : 1
Format : AVC
Format/Info : Advanced Video Codec
Format profile : High@L4.1
Format settings, CABAC : Yes
Format settings, ReFrames : 11 frames
Codec ID : V_MPEG4/ISO/AVC
Duration : 2h 0mn
Bit rate : 4 135 Kbps
Width : 1 136 pixels
Height : 474 pixels
Display aspect ratio : 2.40:1
Frame rate mode : Constant
Frame rate : 23.976 (24000/1001) fps
Color space : YUV
Chroma subsampling : 4:2:0
Bit depth : 8 bits
Scan type : Progressive
Bits/(Pixel*Frame) : 0.320
Stream size : 3.47 GiB (74%)
Title : Slumdog Millionaire (2008) [torrentfilm.net]
Writing library : x264 core 148 r2638kMod 7599210
Encoding settings : cabac=1 / ref=11 / deblock=1:-2:-2 / analyse=0x3:0x133 / me=umh / subme=11 / psy=1 / fade_compensate=0.00 / psy_rd=1.00:0.05 / mixed_ref=1 / me_range=48 / chroma_me=1 / trellis=2 / 8x8dct=1 / cqm=0 / deadzone=21,11 / fast_pskip=0 / chroma_qp_offset=-3 / threads=12 / lookahead_threads=3 / sliced_threads=0 / nr=0 / decimate=1 / interlaced=0 / bluray_compat=0 / constrained_intra=0 / fgo=0 / bframes=14 / b_pyramid=2 / b_adapt=2 / b_bias=0 / direct=3 / weightb=1 / open_gop=0 / weightp=2 / keyint=250 / keyint_min=23 / scenecut=40 / intra_refresh=0 / rc_lookahead=60 / rc=crf / mbtree=0 / crf=19.5000 / qcomp=0.60 / qpmin=0 / qpmax=69 / qpstep=4 / vbv_maxrate=50000 / vbv_bufsize=62500 / crf_max=0.0 / nal_hrd=none / filler=0 / ip_ratio=1.40 / pb_ratio=1.30 / aq=3:0.90
Language : English
Default : Yes
Forced : No
Audio #1
ID : 2
Format : AC-3
Format/Info : Audio Coding 3
Mode extension : CM (complete main)
Format settings, Endianness : Big
Codec ID : A_AC3
Duration : 2h 0mn
Bit rate mode : Constant
Bit rate : 448 Kbps
Channel(s) : 6 channels
Channel positions : Front: L C R, Side: L R, LFE
Sampling rate : 48.0 KHz
Frame rate : 31.250 fps (1536 spf)
Compression mode : Lossy
Stream size : 385 MiB (8%)
Title : DUB
Language : Russian
Default : Yes
Forced : No
Audio #2
ID : 3
Format : AC-3
Format/Info : Audio Coding 3
Mode extension : CM (complete main)
Format settings, Endianness : Big
Codec ID : A_AC3
Duration : 2h 0mn
Bit rate mode : Constant
Bit rate : 448 Kbps
Channel(s) : 6 channels
Channel positions : Front: L C R, Side: L R, LFE
Sampling rate : 48.0 KHz
Frame rate : 31.250 fps (1536 spf)
Compression mode : Lossy
Stream size : 385 MiB (8%)
Title : AVO [U. Serbin]
Language : Russian
Default : No
Forced : No
Audio #3
ID : 4
Format : AC-3
Format/Info : Audio Coding 3
Mode extension : CM (complete main)
Format settings, Endianness : Big
Codec ID : A_AC3
Duration : 2h 0mn
Bit rate mode : Constant
Bit rate : 448 Kbps
Channel(s) : 6 channels
Channel positions : Front: L C R, Side: L R, LFE
Sampling rate : 48.0 KHz
Frame rate : 31.250 fps (1536 spf)
Compression mode : Lossy
Stream size : 385 MiB (8%)
Title : Original
Language : English
Default : No
Forced : No
Text #1
ID : 5
Format : UTF-8
Codec ID : S_TEXT/UTF8
Codec ID/Info : UTF-8 Plain Text
Title : Full
Language : Russian
Default : No
Forced : No
Text #2
ID : 6
Format : UTF-8
Codec ID : S_TEXT/UTF8
Codec ID/Info : UTF-8 Plain Text
Title : Full
Language : English
Default : No
Forced : No
Menu
00:00:00.000 : en:One Question Away
00:09:20.935 : en:Tell Me How You Cheated
00:20:26.975 : en:Children of the Slums
00:28:14.734 : en:Superstar!
00:37:57.608 : en:India's National Emblem
00:46:08.557 : en:Bow and Arrow
00:52:03.995 : en:Orphaned and Homeless
01:01:58.256 : en:A Bloody Saint
01:07:21.704 : en:Little Beggars
01:12:18.625 : en:Run!
01:17:52.668 : en:Riding the Rails
01:24:22.474 : en:Is This Heaven?
01:33:07.206 : en:Ben Franklin
01:39:33.092 : en:The Unlucky One
01:48:49.356 : en:On His Knees
01:52:55.977 : en:My Enemy's Enemy
02:00:03.863 : en:

Скриншоты




[Профиль] [ЛС]

Создавать темы 12-Июн-2016 08:50 (спустя 2 месяца 19 дней)

Топик был перенесен из форума Фильмы 2011 года в форум Фильмы 2006-2008 года
Russian Mafia
 
Кто просматривает тему:

Форум Тема Автор Размер
Viasat History Viasat History: Американские принцессы на миллион долларов / Million Dollar American Princesses [сезон 2 серии 1-3 из 4] (Ian Lilley) [2015 г., Документальный, игровой, биографический, история,... skorpionN 1.94 GB
Apple, iOS, iPad, iPhone [iPad] Миллион способов потерять голову / A Million Ways to Die in the West (Сет МакФарлейн / Seth MacFarlane ) [2014, США, Комедия, вестерн, HDRip, SD (576p)] DUB + Original sergej644 1.98 GB
Фильмы 2016 года Выкуп миллиард / Billionaire Ransom / Take Down (2016) HDRip | L BOSS 1.37 GB
Фильмы 2016 года Выкуп миллиард / Billionaire Ransom / Take Down (2016) HDRip | L1 достали все 1.46 GB
Фильмы (HD DVD, Blu-ray и BDRemux) Дьявольский / The Diabolical (Алистер Легранд / Alistair Legrand) [2015, США, ужасы, фантастика, триллер, BDRemux 1080p] VO (Миллиган) + Sub Eng + Original Eng Russian Mafia 19.34 GB
Кулинария Журнал | Миллион Меню №43 (август 2015) [PDF] достали все 2 MB
Кино СССР Игра на миллионы (Геннадий Байсак) [1991, криминальная комедия, DVB] reversefile 3.36 GB
Фильмы (HD Rips | 720p, 1080p) Как поднять миллион. Исповедь Z@drota (2014) WEB-DL 1080p достали все 2.62 GB
Показать сообщения:    

Текущее время: Сегодня 06:03

Часовой пояс: GMT



Вы не можете начинать темы
Вы не можете отвечать на сообщения
Вы не можете редактировать свои сообщения
Вы не можете удалять свои сообщения
Вы не можете голосовать в опросах
Вы не можете прикреплять файлы к сообщениям
Вы не можете скачивать файлы