Миллионер из трущоб / Slumdog Millionaire (Дэнни Бойл / Danny Boyle, Лавлин Тандан / Loveleen Tandan) [2008, Великобритания, драма, мелодрама, BDRip] Dub + Sub Rus + Original Eng

 
Автор Сообщение

TorrentFilm ®

Пол:

Стаж: 2 года

Сообщений: 7741



Награды: Нет

Торрент-статистика

Создавать темы 23-Мар-2016 00:08

[Цитировать]

Миллионер из трущоб / Slumdog Millionaire
Страна: Великобритания
Жанр: драма, мелодрама
Год выпуска: 2008
Продолжительность: 01:59:58
Перевод: Профессиональный (дублированный)
Cубтитры: Русские (3 вида), английские (внешние, *.srt)
Оригинальная аудиодорожка: английский-Режиссер: Дэнни Бойл / Danny Boyle, Лавлин Тандан / Loveleen Tandan-В ролях: Дев Патель, Саурабх Шукла, Анил Капур, Рахендранат Зутши, Женева Талвар, Фрида Пинто, Ирфан Кхан, Ажаруддин Мохаммед Измаил, Аюш Махеш Кхедекар, Жира Банжара-Описание: Джамал Малик, 18-летний сирота из трущоб в Мумбаи, всего в одном шаге от победы в телеигре «Кто хочет стать миллионером?» и выигрыша 20 миллионов рупий. Прервав игру, его арестовывает полиция по подозрению в мошенничестве. Откуда юнец, выросший на улице, может знать так много? На допросе в полиции Джамал рассказывает печальную историю своей жизни: о пережитых приключениях вместе с братом, о стычках с местными бандами, о своей трагической любви. Каждая глава личной истории удивительным образом дала ему ответы на вопросы телевикторины. Когда игру возобновят, инспектору полиции и шестидесяти миллионам зрителей захочется выяснить ответ только на один вопрос: зачем этот юноша, без явного стремления к богатству, решил принять участие в телепрограмме?-Релиз:
Автор: SiriuS1509-Качество видео: BDRip
Формат видео: AVI
Видео: 720x304 (2.37:1), 24 fps, XviD build 64 ~1828 kbps avg, 0.35 bit/pixel
Аудио 1: 48 kHz, AC3 Dolby Digital, 3/2 (L,C,R,l,r) + LFE ch, ~384.00 kbps avg
Аудио 2: 48 kHz, AC3 Dolby Digital, 3/2 (L,C,R,l,r) + LFE ch, ~384.00 kbps avg-Скачать сэмпл-

MediaInfo

Format                                   : AVI
Format/Info                              : Audio Video Interleave
Format profile                           : OpenDML
File size                                : 2.18 GiB
Duration                                 : 1h 59mn
Overall bit rate                         : 2 603 Kbps
Writing application                      : VirtualDubMod 1.5.10.2 (build 2542/release)
Writing library                          : VirtualDubMod build 2542/release
Video
ID                                       : 0
Format                                   : MPEG-4 Visual
Format profile                           : Advanced Simple@L5
Format settings, BVOP                    : 1
Format settings, QPel                    : No
Format settings, GMC                     : No warppoints
Format settings, Matrix                  : Custom
Codec ID                                 : XVID
Codec ID/Hint                            : XviD
Duration                                 : 1h 59mn
Bit rate                                 : 1 818 Kbps
Width                                    : 720 pixels
Height                                   : 304 pixels
Display aspect ratio                     : 2.35:1
Frame rate                               : 24.000 fps
Color space                              : YUV
Chroma subsampling                       : 4:2:0
Bit depth                                : 8 bits
Scan type                                : Progressive
Compression mode                         : Lossy
Bits/(Pixel*Frame)                       : 0.346
Stream size                              : 1.52 GiB (70%)
Writing library                          : XviD 64
Audio #1
ID                                       : 1
Format                                   : AC-3
Format/Info                              : Audio Coding 3
Mode extension                           : CM (complete main)
Codec ID                                 : 2000
Duration                                 : 1h 59mn
Bit rate mode                            : Constant
Bit rate                                 : 384 Kbps
Channel(s)                               : 6 channels
Channel positions                        : Front: L C R, Side: L R, LFE
Sampling rate                            : 48.0 KHz
Bit depth                                : 16 bits
Compression mode                         : Lossy
Stream size                              : 330 MiB (15%)
Alignment                                : Split accross interleaves
Interleave, duration                     : 42 ms (1.00 video frame)
Interleave, preload duration             : 500 ms
Audio #2
ID                                       : 2
Format                                   : AC-3
Format/Info                              : Audio Coding 3
Mode extension                           : CM (complete main)
Codec ID                                 : 2000
Duration                                 : 1h 59mn
Bit rate mode                            : Constant
Bit rate                                 : 384 Kbps
Channel(s)                               : 6 channels
Channel positions                        : Front: L C R, Side: L R, LFE
Sampling rate                            : 48.0 KHz
Bit depth                                : 16 bits
Compression mode                         : Lossy
Stream size                              : 330 MiB (15%)
Alignment                                : Split accross interleaves
Interleave, duration                     : 42 ms (1.00 video frame)
Interleave, preload duration             : 500 ms

Скриншоты

[Профиль] [ЛС]

Создавать темы 12-Июн-2016 08:50 (спустя 2 месяца 20 дней)

Топик был перенесен из форума Фильмы 2011 года в форум Фильмы 2006-2008 года
Russian Mafia
 
Кто просматривает тему:

Форум Тема Автор Размер
Viasat History Viasat History: Американские принцессы на миллион долларов / Million Dollar American Princesses [сезон 2 серии 1-3 из 4] (Ian Lilley) [2015 г., Документальный, игровой, биографический, история,... skorpionN 1.94 GB
Apple, iOS, iPad, iPhone [iPad] Миллион способов потерять голову / A Million Ways to Die in the West (Сет МакФарлейн / Seth MacFarlane ) [2014, США, Комедия, вестерн, HDRip, SD (576p)] DUB + Original sergej644 1.98 GB
Фильмы 2016 года Выкуп миллиард / Billionaire Ransom / Take Down (2016) HDRip | L BOSS 1.37 GB
Фильмы 2016 года Выкуп миллиард / Billionaire Ransom / Take Down (2016) HDRip | L1 достали все 1.46 GB
Фильмы (HD DVD, Blu-ray и BDRemux) Дьявольский / The Diabolical (Алистер Легранд / Alistair Legrand) [2015, США, ужасы, фантастика, триллер, BDRemux 1080p] VO (Миллиган) + Sub Eng + Original Eng Russian Mafia 19.34 GB
Кулинария Журнал | Миллион Меню №43 (август 2015) [PDF] достали все 2 MB
Кино СССР Игра на миллионы (Геннадий Байсак) [1991, криминальная комедия, DVB] reversefile 3.36 GB
Фильмы (HD Rips | 720p, 1080p) Как поднять миллион. Исповедь Z@drota (2014) WEB-DL 1080p достали все 2.62 GB
Показать сообщения:    

Текущее время: Сегодня 16:41

Часовой пояс: GMT



Вы не можете начинать темы
Вы не можете отвечать на сообщения
Вы не можете редактировать свои сообщения
Вы не можете удалять свои сообщения
Вы не можете голосовать в опросах
Вы не можете прикреплять файлы к сообщениям
Вы не можете скачивать файлы