Миллионер из трущоб / Slumdog Millionaire (Дэнни Бойл / Danny Boyle, Лавлин Тандан / Loveleen Tandan) [2008, Великобритания, США, драма, мелодрама, SATRip] Dub

 
Автор Сообщение

TorrentFilm ®

Пол:

Стаж: 2 года

Сообщений: 7741



Награды: Нет

Торрент-статистика

Создавать темы 17-Май-2015 00:03

[Цитировать]

Миллионер из трущоб / Slumdog Millionaire Страна: Великобритания, США
Жанр: драма, мелодрама
Год выпуска: 2008
Продолжительность: 01:55:10
Перевод: Профессиональный (дублированный)
Cубтитры: нет
Оригинальная аудиодорожка: нет
Режиссер: Дэнни Бойл, Лавлин Тандан / Danny Boyle, Loveleen Tandan
В ролях: Дев Патель, Фрида Пинто, Анил Капур, Саурабх Шукла, Махеш Манджрекар, Ирфан Кхан, Мадхур Миттал, Рахендранат Зутши. Женева Талвар, Ажаруддин Мохаммед Измаил
Описание: Джамал Малик, 18-летний сирота из трущоб в Мумбаи, всего в одном шаге от победы в телеигре «Кто хочет стать миллионером?» и выигрыша 20 миллионов рупий. Прервав игру, его арестовывает полиция по подозрению в мошенничестве. Откуда юнец, выросший на улице, может знать так много?
На допросе в полиции Джамал рассказывает печальную историю своей жизни: о пережитых приключениях вместе с братом, о стычках с местными бандами, о своей трагической любви. Каждая глава личной истории удивительным образом дала ему ответы на вопросы телевикторины.
Когда игру возобновят, инспектору полиции и шестидесяти миллионам зрителей захочется выяснить ответ только на один вопрос: зачем этот юноша, без явного стремления к богатству, решил принять участие в телепрограмме?
Доп. информация:
Роли дублировали: Николай Быстров, Лина Иванова, Дмитрий Дибров, Алексей Колган, Владимир Антоник
Сэмпл: http://rusfolder.com/43592026

Качество видео: SATRip
Формат видео: AVI
Видео: XviD, 640x304, 2150 Кбит/сек, 25.000 fps, 0.146 bit/pixel
Аудио: русский, MP2, 2ch, 48,0 КГц, 192 Кбит/сек

MediaInfo

Общее
Полное имя : C:\Documents and Settings\User\Рабочий стол\Миллионер из трущоб.avi
Формат : AVI
Формат/Информация : Audio Video Interleave
Размер файла : 749 Мбайт
Продолжительность : 1 ч. 55 м.
Общий поток : 910 Кбит/сек
Программа кодирования : VirtualDubMod 1.5.10.2 (build 2540/release)
Библиотека кодирования : VirtualDubMod build 2540/release
Видео
Идентификатор : 0
Формат : MPEG-4 Visual
Профиль формата : Advanced Simple@L5
Параметр BVOP формата : 1
Параметр QPel формата : Нет
Параметр GMC формата : Без точки перехода
Параметр матрицы формата : Default (MPEG)
Идентификатор кодека : XVID
Идентификатор кодека/Подсказка : XviD
Продолжительность : 1 ч. 55 м.
Битрейт : 708 Кбит/сек
Ширина : 640 пикселей
Высота : 304 пикселя
Соотношение сторон : 2,105
Частота кадров : 25,000 кадров/сек
Цветовое пространство : YUV
Субдискретизация насыщенности : 4:2:0
Битовая глубина : 8 бит
Тип развёртки : Прогрессивная
Метод сжатия : С потерями
Бит/(Пиксели*Кадры) : 0.146
Размер потока : 583 Мбайт (78%)
Библиотека кодирования : XviD 1.2.1 (UTC 2008-12-04)
Аудио
Идентификатор : 1
Формат : AC-3
Формат/Информация : Audio Coding 3
Расширение режима : CM (complete main)
Параметр Endianness формата : Big
Идентификатор кодека : 2000
Продолжительность : 1 ч. 55 м.
Вид битрейта : Постоянный
Битрейт : 192 Кбит/сек
Каналы : 2 канала
Расположение каналов : Front: L R
Частота : 48,0 КГц
Битовая глубина : 16 бит
Метод сжатия : С потерями
Размер потока : 158 Мбайт (21%)
Выравнивание : Разделение по промежуткам
Продолжительность промежутка : 40 мс. (1,00 видеокадр)
Время предзагрузки промежутка : 500 мс.

Скриншот c названием фильма

Скриншоты

[Профиль] [ЛС]

Создавать темы 06-Авг-2015 22:31 (спустя 2 месяца 20 дней)

Топик был перенесен из форума Фильмы до 2014 года в форум Фильмы до 2012 года
sergej644
 

Создавать темы 12-Июн-2016 08:52 (спустя 1 год)

Топик был перенесен из форума Фильмы 2011 года в форум Фильмы 2006-2008 года
Russian Mafia
 
Кто просматривает тему:

Форум Тема Автор Размер
Viasat History Viasat History: Американские принцессы на миллион долларов / Million Dollar American Princesses [сезон 2 серии 1-3 из 4] (Ian Lilley) [2015 г., Документальный, игровой, биографический, история,... skorpionN 1.94 GB
Apple, iOS, iPad, iPhone [iPad] Миллион способов потерять голову / A Million Ways to Die in the West (Сет МакФарлейн / Seth MacFarlane ) [2014, США, Комедия, вестерн, HDRip, SD (576p)] DUB + Original sergej644 1.98 GB
Фильмы 2016 года Выкуп миллиард / Billionaire Ransom / Take Down (2016) HDRip | L BOSS 1.37 GB
Фильмы 2016 года Выкуп миллиард / Billionaire Ransom / Take Down (2016) HDRip | L1 достали все 1.46 GB
Фильмы (HD DVD, Blu-ray и BDRemux) Дьявольский / The Diabolical (Алистер Легранд / Alistair Legrand) [2015, США, ужасы, фантастика, триллер, BDRemux 1080p] VO (Миллиган) + Sub Eng + Original Eng Russian Mafia 19.34 GB
Кулинария Журнал | Миллион Меню №43 (август 2015) [PDF] достали все 2 MB
Кино СССР Игра на миллионы (Геннадий Байсак) [1991, криминальная комедия, DVB] reversefile 3.36 GB
Фильмы (HD Rips | 720p, 1080p) Как поднять миллион. Исповедь Z@drota (2014) WEB-DL 1080p достали все 2.62 GB
Показать сообщения:    

Текущее время: Сегодня 21:02

Часовой пояс: GMT



Вы не можете начинать темы
Вы не можете отвечать на сообщения
Вы не можете редактировать свои сообщения
Вы не можете удалять свои сообщения
Вы не можете голосовать в опросах
Вы не можете прикреплять файлы к сообщениям
Вы не можете скачивать файлы