Миллионер из трущоб / Slumdog Millionaire (Дэнни Бойл / Danny Boyle, Лавлин Тандан / Loveleen Tandan) [2008, Великобритания, США, триллер, драма, мелодрама, HDRip] Dub

 
Автор Сообщение

TorrentFilm ®

Пол:

Стаж: 1 год 11 месяцев

Сообщений: 7741



Награды: Нет

Торрент-статистика

Создавать темы 09-Май-2015 00:03

[Цитировать]

Миллионер из трущоб / Slumdog Millionaire
Страна: Великобритания, США
Жанр: триллер, драма, мелодрама
Год выпуска: 2008
Продолжительность: 02:00:38
Перевод: Профессиональный (дублированный)
Cубтитры: нет
Режиссер: Дэнни Бойл / Danny Boyle, Лавлин Тандан / Loveleen Tandan
В ролях: Дев Патель, Анил Капур, Саурабх Шукла, Рахендранат Зутши, Женева Талвар, Фрейда Пинто, Ирфан Кхан, Ажаруддин Мохаммед Измаил, Аюш Махеш Кхедекар, Сунил Кумар Агравал, Жира Банжара, Шейх Вали, Mahesh Manjrekar, Sanchita Couhdary, Химаншу Тьяги, Шариб Хашми, Virendra Chatterjee, Фероуз Кхан, Virender Kumar, Девеш Раваль, Рубина Али
Описание: Джамал Малик, 18-летний сирота из трущоб в Мумбаи, всего в одном шаге от победы в телеигре «Кто хочет стать миллионером?» и выигрыша 20 миллионов рупий. Прервав игру, его арестовывает полиция по подозрению в мошенничестве. Откуда юнец, выросший на улице, может знать так много?
На допросе в полиции Джамал рассказывает печальную историю своей жизни: о пережитых приключениях вместе с братом, о стычках с местными бандами, о своей трагической любви. Каждая глава личной истории удивительным образом дала ему ответы на вопросы телевикторины.
Когда игру возобновят, инспектору полиции и шестидесяти миллионам зрителей захочется выяснить ответ только на один вопрос: зачем этот юноша, без явного стремления к богатству, решил принять участие в телепрограмме?
Сэмпл: http://multi-up.com/1046807
Качество видео: HDRip
Формат видео: AVI
Видео: 720x304 (2.37:1), 23.976 fps, XviD build 73 ~1262 kbps avg, 0.24 bit/pixel
Аудио: 48 kHz, AC3 Dolby Digital, 3/2 (L,C,R,l,r) + LFE ch, ~448.00 kbps avg

MediaInfo

Формат : AVI
Формат/Информация : Audio Video Interleave
Размер файла : 1,45 Гбайт
Продолжительность : 2 ч. 0 м.
Общий поток : 1720 Кбит/сек
Программа кодирования : VirtualDubMod 1.5.10.3 | www.virtualdub-fr.org || (build 2550/release)
Библиотека кодирования : VirtualDubMod build 2550/release
Видео
Идентификатор : 0
Формат : MPEG-4 Visual
Профиль формата : Advanced Simple@L5
Параметр BVOP формата : 1
Параметр QPel формата : Нет
Параметр GMC формата : Без точки перехода
Параметр матрицы формата : Выборочная
Идентификатор кодека : XVID
Идентификатор кодека/Подсказка : XviD
Продолжительность : 2 ч. 0 м.
Битрейт : 1263 Кбит/сек
Ширина : 720 пикселей
Высота : 304 пикселя
Соотношение сторон : 2,35:1
Частота кадров : 23,976 кадра/сек
Цветовое пространство : YUV
Субдискретизация насыщенности : 4:2:0
Битовая глубина : 8 бит
Тип развёртки : Прогрессивная
Метод сжатия : С потерями
Бит/(Пиксели*Кадры) : 0.241
Размер потока : 1,06 Гбайт (73%)
Библиотека кодирования : XviD 73
Аудио
Идентификатор : 1
Формат : AC-3
Формат/Информация : Audio Coding 3
Расширение режима : CM (complete main)
Параметр Endianness формата : Big
Идентификатор кодека : 2000
Продолжительность : 2 ч. 0 м.
Вид битрейта : Постоянный
Битрейт : 448 Кбит/сек
Каналы : 6 каналов
Расположение каналов : Front: L C R, Side: L R, LFE
Частота : 48,0 КГц
Битовая глубина : 16 бит
Метод сжатия : С потерями
Размер потока : 387 Мбайт (26%)
Выравнивание : Разделение по промежуткам
Продолжительность промежутка : 42 мс. (1,00 видеокадр)
Время предзагрузки промежутка : 500 мс.

Скриншот c названием фильма

Скриншоты





[Профиль] [ЛС]

Создавать темы 06-Авг-2015 22:35 (спустя 2 месяца 28 дней)

Топик был перенесен из форума Фильмы до 2014 года в форум Фильмы до 2012 года
sergej644
 

Создавать темы 12-Июн-2016 08:51 (спустя 1 год 1 месяц)

Топик был перенесен из форума Фильмы 2011 года в форум Фильмы 2006-2008 года
Russian Mafia
 

nickson-82

Пол:

Стаж: 10 месяцев 2 дня

Сообщений: 93



Награды: 1 (Подробнее)

Друг (Количество: 1)
Торрент-статистика

Создавать темы 18-Июн-2016 20:47 (спустя 1 год 1 месяц)

[Цитировать]

Блин ребята, настройте свой автопарсер по нужным путям, и проверяйте каждую раздачу "срёт" много и по поводу кода оформления и по по поводу сторонних ссылок
[Профиль] [ЛС]
Кто просматривает тему:

Форум Тема Автор Размер
Viasat History Viasat History: Американские принцессы на миллион долларов / Million Dollar American Princesses [сезон 2 серии 1-3 из 4] (Ian Lilley) [2015 г., Документальный, игровой, биографический, история,... skorpionN 1.94 GB
Apple, iOS, iPad, iPhone [iPad] Миллион способов потерять голову / A Million Ways to Die in the West (Сет МакФарлейн / Seth MacFarlane ) [2014, США, Комедия, вестерн, HDRip, SD (576p)] DUB + Original sergej644 1.98 GB
Фильмы 2016 года Выкуп миллиард / Billionaire Ransom / Take Down (2016) HDRip | L BOSS 1.37 GB
Фильмы 2016 года Выкуп миллиард / Billionaire Ransom / Take Down (2016) HDRip | L1 достали все 1.46 GB
Фильмы (HD DVD, Blu-ray и BDRemux) Дьявольский / The Diabolical (Алистер Легранд / Alistair Legrand) [2015, США, ужасы, фантастика, триллер, BDRemux 1080p] VO (Миллиган) + Sub Eng + Original Eng Russian Mafia 19.34 GB
Кулинария Журнал | Миллион Меню №43 (август 2015) [PDF] достали все 2 MB
Кино СССР Игра на миллионы (Геннадий Байсак) [1991, криминальная комедия, DVB] reversefile 3.36 GB
Фильмы (HD Rips | 720p, 1080p) Как поднять миллион. Исповедь Z@drota (2014) WEB-DL 1080p достали все 2.62 GB
Показать сообщения:    

Текущее время: Сегодня 11:56

Часовой пояс: GMT



Вы не можете начинать темы
Вы не можете отвечать на сообщения
Вы не можете редактировать свои сообщения
Вы не можете удалять свои сообщения
Вы не можете голосовать в опросах
Вы не можете прикреплять файлы к сообщениям
Вы не можете скачивать файлы