Миланский калибр 9 / Milano calibro 9 (Фернандо Ди Лео / Fernando Di Leo) [1972, Италия, боевик, триллер, криминал, BDRip] VO

 
Автор Сообщение

AleksSin ®

Пол:

Стаж: 6 лет

Сообщений: 218



Награды: 4 (Подробнее)

Mega Seeder 1 (Количество: 1) Mega Seeder 2 (Количество: 1) Mega Seeder 3 (Количество: 1)
Торрент-статистика

Создавать темы 02-Сен-2016 07:37

[Цитировать]

Миланский калибр 9 / Milano calibro 9
Страна: Италия
Жанр: боевик, триллер, криминал
Год выпуска: 1972
Продолжительность: 01:42:03
Перевод: Одноголосый закадровый
Cубтитры: нет
Оригинальная аудиодорожка: нет
Режиссер: Фернандо Ди Лео / Fernando Di Leo
В ролях: Гастоне Москин, Барбара Буше, Марио Адорф, Фрэнк Вулф, Луиджи Пистилли, Иво Гаррани, Филипп Леруа, Лайонел Стэндер, Марио Новелли, Джузеппе Кастеллано
Описание: История закручивается на чемодане с деньгами, который бандиты передавали друг другу, а в результате босс обнаружил в нём бумагу вместо денег. Всех подельников пытали и убили, кроме одного. Это был Уго Пьяцца. Он сел в тюрьму на три года, и после выхода на свободу его сразу же начали преследовать старые подельники, на 100% уверенные, что это он украл деньги. Они не спешат убить его, а он старается доказать, что не имеет никакого отношения к пропаже денег. Но кто же тогда своровал такую большую сумму и остался незамеченным?

Сэмпл: http://multi-up.com/1116144
Качество видео: BDRip (Мсх. BDRemux)
Формат видео: AVI
Видео: 704x384 (1.83:1), 23.976 fps, XviD build 73 ~1834 kbps avg, 0.28 bit/pixel
Аудио: 48 kHz, AC3 Dolby Digital, 2/0 (L,R) ch, ~192 kbps

MediaInfo

Общее
Полное имя : S:\Фильмы\Миланский калибр 9. BDRip (AleksSin).avi
Формат : AVI
Формат/Информация : Audio Video Interleave
Размер файла : 1,45 Гбайт
Продолжительность : 1 ч. 42 м.
Общий поток : 2036 Кбит/сек
Программа кодирования : VirtualDubMod 1.5.10.3 | www.virtualdub-fr.org || (build 2550/release)
Библиотека кодирования : VirtualDubMod build 2550/release
Видео
Идентификатор : 0
Формат : MPEG-4 Visual
Профиль формата : Advanced Simple@L5
Параметр BVOP формата : 1
Параметр QPel формата : Нет
Параметр GMC формата : Без точки перехода
Параметр матрицы формата : Выборочная
Идентификатор кодека : XVID
Идентификатор кодека/Подсказка : XviD
Продолжительность : 1 ч. 42 м.
Битрейт : 1834 Кбит/сек
Ширина : 704 пикселя
Высота : 384 пикселя
Соотношение сторон : 1,85:1
Частота кадров : 23,976 кадра/сек
Цветовое пространство : YUV
Субдискретизация насыщенности : 4:2:0
Битовая глубина : 8 бит
Тип развёртки : Прогрессивная
Метод сжатия : С потерями
Бит/(Пиксели*Кадры) : 0.283
Размер потока : 1,31 Гбайт (90%)
Библиотека кодирования : XviD 73
Аудио
Идентификатор : 1
Формат : AC-3
Формат/Информация : Audio Coding 3
Расширение режима : CM (complete main)
Параметр Endianness формата : Big
Идентификатор кодека : 2000
Продолжительность : 1 ч. 42 м.
Вид битрейта : Постоянный
Битрейт : 192 Кбит/сек
Каналы : 2 канала
Расположение каналов : Front: L R
Частота : 48,0 КГц
Битовая глубина : 16 бит
Метод сжатия : С потерями
Размер потока : 140 Мбайт (9%)
Выравнивание : Разделение по промежуткам
Продолжительность промежутка : 42 мс. (1,00 видеокадр)
Время предзагрузки промежутка : 500 мс.

Скриншот c названием фильма

Скриншоты

[Профиль] [ЛС]
Кто просматривает тему:

Форум Тема Автор Размер
R.G.TorrentFilm Video Извините, если я существую! / Scusate se esisto! (Риккардо Милани / Riccardo Milani) [2014, Италия, Комедия, HDRip] VO (Lord32x Studio) Один 777 748 MB
Фильмы 2014 года Русалка / Мамула / Mamula / Nymph (Милан Тодорович / Milan Todorovic) [2014, Сербия, ужасы, фэнтези, HDRip-AVC] DVO (den904 & DeadSno) sergej644 1.46 GB
Футбол Футбол. Международный Кубок Чемпионов 2015. 1-й тур. Милан (Италия) - Интер (Италия) [25.07] (2015) HDTV 1080i от runetzone sergej644 7.31 GB
Футбол Футбол. Международный Кубок Чемпионов 2015. 1-й тур. Милан (Италия) - Интер (Италия) [25.07] (2015) HDTVRip 720p | 50 fps sergej644 3.08 GB
Футбол Футбол. Международный Кубок Чемпионов 2015. Реал Мадрид (Испания) - Милан (Италия) [30.07] (2015) HDTVRip от runetzone sergej644 1.88 GB
Футбол Футбол. Международный Кубок Чемпионов 2016. Бавария (Германия) - Милан (Италия) [Матч ТВ] [28.07] (2016) WEBRip-AVC BOSS 1.22 GB
Футбол Футбол. Международный Кубок Чемпионов 2016. Ливерпуль (Англия) - Милан (Италия) [Матч Футбол 1 HD] [30.07] (2016) IPTVRip BOSS 1.38 GB
Футбол Футбол. Международный Кубок Чемпионов 2016. Милан (Италия) - Челси (Англия) [Футбол 1 HD] [04.08] (2016) HDTVRip 720p | 50 fps Russian Mafia 2.82 GB
Показать сообщения:    

Текущее время: Сегодня 14:09

Часовой пояс: GMT



Вы не можете начинать темы
Вы не можете отвечать на сообщения
Вы не можете редактировать свои сообщения
Вы не можете удалять свои сообщения
Вы не можете голосовать в опросах
Вы не можете прикреплять файлы к сообщениям
Вы не можете скачивать файлы