Микроб и Бензин / Microbe et Gasoil (2015) WEB-DLRip | L

 
Автор Сообщение

достали все ®

Пол:

Стаж: 1 год 8 месяцев

Сообщений: 6545



Награды: 12 (Подробнее)

Top Releaser 4 (Количество: 1) Mega Releaser 1 (Количество: 1) Top Releaser 2 (Количество: 1)
Торрент-статистика

Создавать темы 12-Июл-2016 17:19

[Цитировать]

Информация о фильме
Название: Микроб и Бензин
Оригинальное название: Microbe et Gasoil
Год выхода: 2015
Жанр: драма, комедия, приключения
Режиссер: Мишель Гондри
В ролях: Эндж Д’Аржент, Теофиль Баке, Диана Беснир, Одри Тоту, Винцент Ламуре, Дуглас Броссет, Чарльз Реймонд, Фердинанд Ру-Балм, Марк Деларю
О фильме:
Двое мальчишек решают, что хватит прозябать в школе, где оба слывут лузерами и ботаниками, а пора как следует прокатиться по Франции. Для этой сумасбродной затеи они конструируют не менее безумное средство передвижения – настоящий дом на колесах. Самое главное летнее приключение начинается!

Производство: Франция / Partizan, StudioCanal, Canal+
Продолжительность: 01:43:11
Перевод: любительский (многоголосый закадровый) [Parovoz Production]
Файл
Качество: WEB-DLRip
Формат: AVI
Видео: XviD, 720x432 (5:3), 24.000 fps, 1695 kbps, 0.227 bit/pixel
Аудио: русский, AC3 2.0, 48 kHz, 384 kbps

MediaInfo

Формат : AVI
Формат/Информация : Audio Video Interleave
Размер файла : 1,51 Гбайт
Продолжительность : 1 ч. 43 м.
Общий поток : 2089 Кбит/сек
Программа кодирования : VirtualDubMod 1.5.10.2 (build 2540/release)
Библиотека кодирования : VirtualDubMod build 2540/release
Видео
Идентификатор : 0
Формат : MPEG-4 Visual
Профиль формата : Advanced Simple@L5
Параметр BVOP формата : 2
Параметр QPel формата : Нет
Параметр GMC формата : Без точки перехода
Параметр матрицы формата : Выборочная
Идентификатор кодека : XVID
Идентификатор кодека/Подсказка : XviD
Продолжительность : 1 ч. 43 м.
Битрейт : 1695 Кбит/сек
Ширина : 720 пикселей
Высота : 432 пикселя
Соотношение сторон : 5:3
Частота кадров : 24,000 кадра/сек
Цветовое пространство : YUV
Субдискретизация насыщенности : 4:2:0
Битовая глубина : 8 бит
Тип развёртки : Прогрессивная
Метод сжатия : С потерями
Бит/(Пиксели*Кадры) : 0.227
Размер потока : 1,22 Гбайт (81%)
Библиотека кодирования : XviD 1.2.1 (UTC 2008-12-04)
Аудио
Идентификатор : 1
Формат : AC-3
Формат/Информация : Audio Coding 3
Расширение режима : CM (complete main)
Параметр Endianness формата : Big
Идентификатор кодека : 2000
Продолжительность : 1 ч. 43 м.
Вид битрейта : Постоянный
Битрейт : 384 Кбит/сек
Каналы : 2 канала
Расположение каналов : Front: L R
Частота : 48,0 КГц
Метод сжатия : С потерями
Размер потока : 283 Мбайт (18%)
Выравнивание : Разделение по промежуткам
Продолжительность промежутка : 42 мс. (1,00 видеокадр)
Время предзагрузки промежутка : 500 мс.
[Профиль] [ЛС]
Кто просматривает тему:

Форум Тема Автор Размер
Viasat Nature Viasat Nature: Растения под микроскопом / Invisible Nature [серии 1-3 из 3] (Thierry Berrod) [2012 г., Документальный, научно-познавательный,, SATRip] skorpionN 2.14 GB
Документальные HD Британские времена года / The Great British Year (James Brickell / Джеймс Брикл) [2013, Великобритания, BBC, Документальный, научно-популярный, живая природа, HDTVRip 720p] VO (Омикрон) + VO (CSS) +... TorrentFilm 6.44 GB
Rock Включай Микрофон! - Приступы гуманизма (2015) MP3 достали все 91 MB
Фильмы 2013 года Гонка / Rush (Рон Ховард / Ron Howard) [2013, спорт, драма, биография] НDRip | Омикрон BOSS 1.45 GB
Флора и фауна Микромонстры с Дэвидом Аттенборо / Micro Monsters with David Attenborough (Дэвид Аттенборо / David Attenborough) [1/6] [2013, документальный, BDRip] reversefile 2.32 GB
Документальные HD Оживший Лондонский Музей естествознания с Дэвидом Аттенборо / David Attenborough\'s Natural History Museum Alive (Дэниэл М. Смит / Daniel M. Smith) [2014, Документальный, видовой, BDRemux 1080p] V... TorrentFilm 11.99 GB
R.G.TorrentFilm Video Покорение неба с Дэвидом Аттенборо / David Attenborough's Conquest of the Skies (Дэвид Ли / David Lee) [2014, Документальный, флора, фауна, HDRip] VO (студия «Омикрон») Один 777 1.46 GB
Фильмы 2006-2008 года Слезы апреля / Приказ / Käsky / Kasky / Tears of April (Аку Лоухимиес / Aku Louhimies) [2008, Финляндия, Германия, Греция, драма, военный, DVDRip] MVO (Студия "Омикрон") + Sub Rus (от... TorrentFilm 2.07 GB
Показать сообщения:    

Текущее время: Сегодня 18:41

Часовой пояс: GMT



Вы не можете начинать темы
Вы не можете отвечать на сообщения
Вы не можете редактировать свои сообщения
Вы не можете удалять свои сообщения
Вы не можете голосовать в опросах
Вы не можете прикреплять файлы к сообщениям
Вы не можете скачивать файлы