Мидуэй / Midway (1976) BDRip 720p от AleksSin | P, A

 
Автор Сообщение

AleksSin ®

Пол:

Стаж: 6 лет

Сообщений: 218



Награды: 4 (Подробнее)

Mega Seeder 1 (Количество: 1) Mega Seeder 2 (Количество: 1) Mega Seeder 3 (Количество: 1)
Торрент-статистика

Создавать темы 07-Апр-2016 16:33

[Цитировать]

Мидуэй / MidwayГод выхода: 1976
Жанр: боевик, драма, военный, история
Страна: США
Студия: The Mirisch Corporation,Universal Pictures
Продолжительность: 02:11:28
Перевод: Профессиональный (многоголосый закадровый, СТС 6 канал), Авторский (одноголосый закадровый, С. Рябов)
Субтитры: Russian, English (srt)
Навигация по главам: Есть
Режиссер: Джек Смайт
В ролях: Чарлтон Хестон, Генри Фонда, Джеймс Коберн, Гленн Форд, Хэл Холбрук, Тосиро Мифунэ, Роберт Митчум, Клифф Робертсон, Роберт Вагнер, Роберт Уэббер
О фильме:
Вторая Мировая война. Крупнейшее сражение войск США и Японии у атолла Мидуэй.

Файл
Кодек: х264
Качество: BDRip 720p Исходник Blu-Ray Remux 1080p
Видео: MPEG-4 AVC, 8736 Кбит/с, 1280x544 (2,35:1), 23,976 кадра/сек
Аудио #1: 48 kHz, AC3, 2/0 (L,R) ch, ~192.00 kbps avg (Russian) - многоголосый
Аудио #2: 48 kHz, AC3, 2/0 (L,R) ch, ~192.00 kbps avg (Russian) - авторский
Аудио #3: 48 kHz/24-bit, DTS-HD MA 5.1, ~2231.00 kbps avg (English) - оригинал

MediaInfo

Log
x264 [info]: frame I:1149 Avg QP:17.44 size:116321
x264 [info]: frame P:37119 Avg QP:18.61 size: 69119
x264 [info]: frame B:150861 Avg QP:20.73 size: 39204
Общее
Уникальный идентификатор : 185106716863519217365311526412212533182 (0x8B4241C3A39DAF15A68C6170F04877BE)
Полное имя : S:ФильмыМидуэй. 1976. BDRip 720p (AleksSin).mkv
Формат : Matroska
Версия формата : Version 4 / Version 2
Размер файла : 10,4 Гбайт
Продолжительность : 2 ч. 11 м.
Общий поток : 11,4 Мбит/сек
Дата кодирования : UTC 2016-04-07 15:05:59
Программа кодирования : mkvmerge v8.1.0 ('Psychedelic Postcard') 32bit
Библиотека кодирования : libebml v1.3.1 + libmatroska v1.4.2
Видео
Идентификатор : 1
Формат : AVC
Формат/Информация : Advanced Video Codec
Профиль формата : High@L4.1
Параметр CABAC формата : Да
Параметр ReFrames формата : 12 кадров
Идентификатор кодека : V_MPEG4/ISO/AVC
Продолжительность : 2 ч. 11 м.
Битрейт : 8736 Кбит/сек
Ширина : 1280 пикселей
Высота : 544 пикселя
Соотношение сторон : 2,35:1
Режим частоты кадров : Постоянный
Частота кадров : 23,976 (24000/1001) кадра/сек
Цветовое пространство : YUV
Субдискретизация насыщенности : 4:2:0
Битовая глубина : 8 бит
Тип развёртки : Прогрессивная
Бит/(Пиксели*Кадры) : 0.523
Размер потока : 8,02 Гбайт (77%)
Библиотека кодирования : x264 core 148 r2665 a01e339
Настройки программы : cabac=1 / ref=12 / deblock=1:-3:-3 / analyse=0x3:0x133 / me=umh / subme=11 / psy=1 / psy_rd=1.00:0.00 / mixed_ref=1 / me_range=32 / chroma_me=1 / trellis=2 / 8x8dct=1 / cqm=0 / deadzone=21,11 / fast_pskip=1 / chroma_qp_offset=-2 / threads=12 / lookahead_threads=2 / sliced_threads=0 / nr=0 / decimate=1 / interlaced=0 / bluray_compat=0 / constrained_intra=0 / bframes=11 / b_pyramid=2 / b_adapt=2 / b_bias=0 / direct=3 / weightb=1 / open_gop=0 / weightp=2 / keyint=240 / keyint_min=23 / scenecut=40 / intra_refresh=0 / rc_lookahead=60 / rc=crf / mbtree=0 / crf=18.0 / qcomp=0.65 / qpmin=0 / qpmax=69 / qpstep=4 / vbv_maxrate=50000 / vbv_bufsize=62500 / crf_max=0.0 / nal_hrd=none / filler=0 / ip_ratio=1.40 / pb_ratio=1.30 / aq=3:0.80
Default : Да
Forced : Нет
Аудио #1
Идентификатор : 2
Формат : AC-3
Формат/Информация : Audio Coding 3
Расширение режима : CM (complete main)
Параметр Endianness формата : Big
Идентификатор кодека : A_AC3
Продолжительность : 2 ч. 11 м.
Вид битрейта : Постоянный
Битрейт : 192 Кбит/сек
Каналы : 2 канала
Расположение каналов : Front: L R
Частота : 48,0 КГц
Частота кадров : 31,250 кадров/сек (1536 spf)
Метод сжатия : С потерями
Размер потока : 181 Мбайт (2%)
Default : Да
Forced : Нет
Аудио #2
Идентификатор : 3
Формат : AC-3
Формат/Информация : Audio Coding 3
Расширение режима : CM (complete main)
Параметр Endianness формата : Big
Идентификатор кодека : A_AC3
Продолжительность : 2 ч. 11 м.
Вид битрейта : Постоянный
Битрейт : 192 Кбит/сек
Каналы : 2 канала
Расположение каналов : Front: L R
Частота : 48,0 КГц
Частота кадров : 31,250 кадров/сек (1536 spf)
Метод сжатия : С потерями
Размер потока : 181 Мбайт (2%)
Default : Нет
Forced : Нет
Аудио #3
Идентификатор : 4
Формат : DTS
Формат/Информация : Digital Theater Systems
Профиль формата : MA / Core
Режим : 16
Параметр Endianness формата : Big
Идентификатор кодека : A_DTS
Продолжительность : 2 ч. 11 м.
Вид битрейта : Переменный / Постоянный
Битрейт : 2231 Кбит/сек / 1509 Кбит/сек
Каналы : 6 каналов
Расположение каналов : Front: L C R, Side: L R, LFE
Частота : 48,0 КГц
Частота кадров : 93,750 кадра/сек (512 spf)
Битовая глубина : 24 бит
Метод сжатия : Без потерь / Lossy
Размер потока : 2,05 Гбайт (20%)
Default : Нет
Forced : Нет
Текст #1
Идентификатор : 5
Формат : UTF-8
Идентификатор кодека : S_TEXT/UTF8
Идентификатор кодека/Информация : UTF-8 Plain Text
Продолжительность : 2 ч. 9 м.
Битрейт : 96 бит/сек
Count of elements : 1142
Размер потока : 91,6 Кбайт (0%)
Default : Да
Forced : Нет
Текст #2
Идентификатор : 6
Формат : UTF-8
Идентификатор кодека : S_TEXT/UTF8
Идентификатор кодека/Информация : UTF-8 Plain Text
Продолжительность : 2 ч. 8 м.
Битрейт : 66 бит/сек
Count of elements : 1700
Размер потока : 62,5 Кбайт (0%)
Default : Нет
Forced : Нет
Меню
00:00:00.000 : en:
00:05:00.000 : en:
00:10:00.000 : en:
00:15:00.000 : en:
00:20:00.000 : en:
00:25:00.000 : en:
00:30:00.000 : en:
00:35:00.000 : en:
00:40:00.000 : en:
00:45:00.000 : en:
00:50:00.000 : en:
00:55:00.000 : en:
01:00:00.000 : en:
01:05:00.000 : en:
01:10:00.000 : en:
01:15:00.000 : en:
01:20:00.000 : en:
01:25:00.000 : en:
01:30:00.000 : en:
01:35:00.000 : en:
01:40:00.000 : en:
01:45:00.000 : en:
01:50:00.000 : en:
01:55:00.000 : en:
02:00:00.000 : en:
02:05:00.000 : en:

Скриншоты

[Профиль] [ЛС]
Кто просматривает тему:

Форум Тема Автор Размер
Фильмы (HD Rips | 720p, 1080p) Мидуэй / Midway (1976) BDRip [1080p] Guest 10.9 GB
Показать сообщения:    

Текущее время: Сегодня 09:58

Часовой пояс: GMT



Вы не можете начинать темы
Вы не можете отвечать на сообщения
Вы не можете редактировать свои сообщения
Вы не можете удалять свои сообщения
Вы не можете голосовать в опросах
Вы не можете прикреплять файлы к сообщениям
Вы не можете скачивать файлы