Мидуэй / Midway (1976) BDRip [1080p]

 
Автор Сообщение

admin ®





Торрент-статистика

Создавать темы 07-Авг-2014 22:49

[Цитировать]

-Мидуэй / Midway (1976) BDRip
«The glory, the suspense, the spectacular drama of the men who won the most decisive naval battle in U.S. history»
- Год выпуска: 1976
Производство: США / The Mirisch Corporation, Universal Pictures
Жанр: Боевик, драма, военный, история
Описание фильма:
Эмоциональный рассказ о судьбоносном морском сражении времен Второй мировой войны между Японией и Америкой за атолл Мидуэй в Тихом океане. Это правдивая история невероятного боя, который стал переломным моментом тихоокеанской кампании. Это сражение - наглядный пример того, как отвага и холодный расчет, ошибка и нелепая случайность кардинально меняют ход великих событий...
Режиссер: Джек Смайт / Jack Smight
Продюсер: Уолтер Мириш
Актеры: Чарлтон Хестон, Генри Фонда, Джеймс Коберн, Гленн Форд, Хэл Холбрук, Тосиро Мифунэ, Роберт Митчум, Клифф Робертсон, Роберт Вагнер, Роберт Уэббер
Язык: Русский, английский
Перевод: Многоголосый закадровый (профессиональный), Одноголосый закадровый (авторский)
Вид субтитров: Вшитые отключаемые
Язык субтитров: Русский, английский (full, SDH)

Дата мировой премьеры: 18 июня 1976
Продолжительность: 02:11:28
Качество видео: BDRip [CHD]
Видео: MPEG-4 AVC/H.264, 1920x816 (2.35:1), ~9973 kbps (0.265 bit/pixel), 23.976 fps
Аудио 1: AC3 2.0, 192 kbps, 48 kHz, 16-bit [Русский - многоголосый закадровый «6-й канал по заказу СТС»]
Аудио 2: AC3 2.0, 192 kbps, 48 kHz, 16-bit [Русский - одноголосый закадровый «С. Рябов»]
Аудио 3: DTS 5.1, 1536 kbps, 48 kHz, 24-bit [Английский - оригинал]

Отчёт MediaInfo

Полное имя                               : D:\Мидуэй-Midway.(1976).BDRip.[1080p].mkv
Формат                                   : Matroska
Версия формата                           : Version 2
Размер файла                             : 10,9 Гбайт
Продолжительность                        : 2 ч. 11 м.
Общий поток                              : 11,9 Мбит/сек
Название фильма                          : Midway (1976)
Дата кодирования                         : UTC 2014-08-04 09:13:05
Программа кодирования                    : mkvmerge v5.7.0 ('The Whirlwind') built on Aug  7 2012 14:11:40
Библиотека кодирования                   : libebml v1.2.3 + libmatroska v1.3.0
Attachment                               : Yes
Видео
Идентификатор                            : 1
Формат                                   : AVC
Формат/Информация                        : Advanced Video Codec
Профиль формата                          : [url=mailto:High@L4.1]High@L4.1[/url]
Параметр CABAC формата                   : Да
Параметр ReFrames формата                : 4 кадра
Идентификатор кодека                     : V_MPEG4/ISO/AVC
Битрейт                                  : 9973 Кбит/сек
Ширина                                   : 1920 пикселей
Высота                                   : 816 пикселей
Соотношение сторон                       : 2,35:1
Режим частоты кадров                     : Переменный
Частота кадров в оригинале               : 23,976 кадра/сек
Цветовое пространство                    : YUV
Субдискретизация насыщенности            : 4:2:0
Битовая глубина                          : 8 бит
Тип развёртки                            : Прогрессивная
Бит/(Пиксели*Кадры)                      : 0.265
Заголовок                                : Мидуэй-Midway.(1976).BDRip.[1080p]
Библиотека кодирования                   : x264 core 129 r2245+729M 1a52e03
Настройки программы                      : cabac=1 / ref=4 / deblock=1:0:0 / analyse=0x3:0x113 / me=umh / subme=10 / psy=1 / fade_compensate=0.00 / psy_rd=1.05:0.10 / mixed_ref=1 / me_range=48 / chroma_me=1 / trellis=2 / 8x8dct=1 / cqm=0 / deadzone=21,11 / fast_pskip=0 / chroma_qp_offset=-2 / threads=12 / lookahead_threads=1 / sliced_threads=0 / nr=0 / decimate=1 / interlaced=0 / bluray_compat=0 / constrained_intra=0 / fgo=0 / bframes=6 / b_pyramid=2 / b_adapt=2 / b_bias=0 / direct=3 / weightb=1 / open_gop=0 / weightp=2 / keyint=250 / keyint_min=23 / scenecut=40 / intra_refresh=0 / rc=2pass / mbtree=0 / bitrate=9973 / ratetol=2.0 / qcomp=0.70 / qpmin=0 / qpmax=69 / qpstep=4 / cplxblur=20.0 / qblur=0.5 / ip_ratio=1.40 / pb_ratio=1.30 / aq=2:1.00
Язык                                     : English
Default                                  : Да
Forced                                   : Нет
Аудио #1
Идентификатор                            : 2
Формат                                   : AC-3
Формат/Информация                        : Audio Coding 3
Расширение режима                        : CM (complete main)
Параметр Endianness формата              : Big
Идентификатор кодека                     : A_AC3
Продолжительность                        : 2 ч. 11 м.
Вид битрейта                             : Постоянный
Битрейт                                  : 192 Кбит/сек
Каналы                                   : 2 канала
Расположение каналов                     : Front: L R
Частота                                  : 48,0 КГц
Битовая глубина                          : 16 бит
Метод сжатия                             : С потерями
Размер потока                            : 181 Мбайт (2%)
Заголовок                                : AC3 2.0 / 192 kbps / MVO (6-й канал по заказу СТС)
Язык                                     : Russian
Default                                  : Да
Forced                                   : Нет
Аудио #2
Идентификатор                            : 3
Формат                                   : AC-3
Формат/Информация                        : Audio Coding 3
Расширение режима                        : CM (complete main)
Параметр Endianness формата              : Big
Идентификатор кодека                     : A_AC3
Продолжительность                        : 2 ч. 11 м.
Вид битрейта                             : Постоянный
Битрейт                                  : 192 Кбит/сек
Каналы                                   : 2 канала
Расположение каналов                     : Front: L R
Частота                                  : 48,0 КГц
Битовая глубина                          : 16 бит
Метод сжатия                             : С потерями
Размер потока                            : 181 Мбайт (2%)
Заголовок                                : AC3 2.0 / 192 kbps / AVO (С. Рябов)
Язык                                     : Russian
Default                                  : Нет
Forced                                   : Нет
Аудио #3
Идентификатор                            : 4
Формат                                   : DTS
Формат/Информация                        : Digital Theater Systems
Идентификатор кодека                     : A_DTS
Продолжительность                        : 2 ч. 11 м.
Вид битрейта                             : Постоянный
Битрейт                                  : 1510 Кбит/сек
Каналы                                   : 6 каналов
Расположение каналов                     : Front: L C R, Side: L R, LFE
Частота                                  : 48,0 КГц
Битовая глубина                          : 24 бит
Метод сжатия                             : С потерями
Размер потока                            : 1,39 Гбайт (13%)
Заголовок                                : DTS 5.1 / 1536 kbps / Original
Язык                                     : English
Default                                  : Нет
Forced                                   : Нет
Текст #1
Идентификатор                            : 5
Формат                                   : UTF-8
Идентификатор кодека                     : S_TEXT/UTF8
Идентификатор кодека/Информация          : UTF-8 Plain Text
Заголовок                                : Full
Язык                                     : Russian
Default                                  : Нет
Forced                                   : Нет
Текст #2
Идентификатор                            : 6
Формат                                   : UTF-8
Идентификатор кодека                     : S_TEXT/UTF8
Идентификатор кодека/Информация          : UTF-8 Plain Text
Заголовок                                : Full
Язык                                     : English
Default                                  : Нет
Forced                                   : Нет
Текст #3
Идентификатор                            : 7
Формат                                   : UTF-8
Идентификатор кодека                     : S_TEXT/UTF8
Идентификатор кодека/Информация          : UTF-8 Plain Text
Заголовок                                : SDH
Язык                                     : English
Default                                  : Нет
Forced                                   : Нет
Меню
00:00:00.000                             : :00:00:00.000
00:05:22.113                             : :00:05:22.113
00:09:24.063                             : :00:09:24.063
00:16:25.150                             : :00:16:25.150
00:26:21.663                             : :00:26:21.663
00:31:45.153                             : :00:31:45.153
00:37:32.750                             : :00:37:32.750
00:42:09.652                             : :00:42:09.652
00:53:50.685                             : :00:53:50.685
01:07:01.517                             : :01:07:01.517
01:13:36.829                             : :01:13:36.829
01:30:36.264                             : :01:30:36.264
01:45:19.021                             : :01:45:19.021
01:52:36.291                             : :01:52:36.291
01:58:44.075                             : :01:58:44.075
02:04:32.590                             : :02:04:32.590
02:06:35.421                             : :02:06:35.421
02:09:17.124                             : :02:09:17.124
Скриншоты:

 
Кто просматривает тему:

Форум Тема Автор Размер
R.G.TorrentFilm Video Мидуэй / Midway (1976) BDRip 720p от AleksSin | P, A AleksSin 10.43 GB
Показать сообщения:    

Текущее время: Сегодня 15:58

Часовой пояс: GMT



Вы не можете начинать темы
Вы не можете отвечать на сообщения
Вы не можете редактировать свои сообщения
Вы не можете удалять свои сообщения
Вы не можете голосовать в опросах
Вы не можете прикреплять файлы к сообщениям
Вы не можете скачивать файлы