Мешки для трупов / Body Bags (Джон Карпентер, Тоуб Хупер, Ларри Салкис) [1993 г., ужасы, фантастика, триллер, комедия, BDRip-AVC] [MVO, AVO]

 
Автор Сообщение

Bathory ®

Пол:

Стаж: 1 год 9 месяцев

Сообщений: 320



Награды: 3 (Подробнее)

Girls (Количество: 1) Друг (Количество: 1) За внесенный вклад в развитие сайта (Количество: 1)
Торрент-статистика

Создавать темы 13-Авг-2017 12:20

[Цитировать]

Мешки для трупов / Body Bags- Информация о фильме
Название: Мешки для трупов
Оригинальное название: Body Bags
Год выхода: 1993
Жанр: ужасы, фантастика, триллер, комедия
Режиссер: Джон Карпентер, Тоуб Хупер, Ларри Салкис
В ролях: Джон Карпентер, Том Арнольд, Тоуб Хупер, Роберт Кэрредин, Алекс Дэтчер, Питер Джейсон, Молли Чик, Уэс Крэйвен, Сэм Рэйми, Дэвид Нотон
О фильме:
В первой новелле, «Бензоколонка», материализуются ужасы симпатичной афроамериканки, настоящей королевы автозаправки, заступившей на дежурство в ночную смену.
Во второй новелле, «Волосы», стареющий жуир, озабоченный появлением лысины, получает столь радикальное средство для роста волос, что от ужаса волосы дыбом встают! В третьей новелле, с названием «Глаз» — попавшему в аварию бейсболисту вживляют глаз мертвеца, и он начинает видеть такое, что его настоящий глаз вовек не видывал…

Страна: США
Студия: 187 Corp., Showtime Networks
Продолжительность: 01:34:23
Перевод:
1. Профессиональный (многоголосый закадровый) СТС
2. Авторский (одноголосый закадровый) Василий Горчаков
Файл
Кодек: AVC
Качество: BDRip-AVC |BDRemux 1080p|
Видео: 1024x576, 1827 kbps, 23,976 fps, 0,129 Bits/(Pixel*Frame)
Звук:
1. AC3, 48 kHz, 2 ch, 192 kbps - MVO
2. AC3, 48 kHz, 2 ch, 192 kbps - AVO
Субтитры: русские форсированные, русские полные, английские

MI

Общее
Unique ID : 226253057375027159924485468615789368868 (0xAA36C0FA65EE482B9F30EDE9CF09D624)
Complete name : E:\Body.Bags.1993.BDRip-AVC.MegaPeer.mkv
Format : Matroska
Format version : Version 4 / Version 2
File size : 1,46 Гбайт
Duration : 1 ч. 34 м.
Overall bit rate : 2211 Кбит/сек
Encoded date : UTC 2017-08-13 11:31:59
Writing application : mkvmerge v14.0.0 ('Flow') 64bit
Writing library : libebml v1.3.4 + libmatroska v1.4.5
Видео
ID : 1
Format : AVC
Format/Info : Advanced Video Codec
Format profile : High@L4.1
Format settings, CABAC : Да
Format settings, RefFrames : 11 кадров
Codec ID : V_MPEG4/ISO/AVC
Duration : 1 ч. 34 м.
Bit rate : 1827 Кбит/сек
Width : 1024 пикселя
Height : 576 пикселей
Display aspect ratio : 16:9
Frame rate mode : Постоянный
Frame rate : 23,976 (24000/1001) кадра/сек
Color space : YUV
Chroma subsampling : 4:2:0
Bit depth : 8 бит
Scan type : Прогрессивная
Bits/(Pixel*Frame) : 0.129
Stream size : 1,20 Гбайт (83%)
Writing library : x264 core 152 r2851 ba24899
Encoding settings : cabac=1 / ref=11 / deblock=1:-2:-2 / analyse=0x3:0x133 / me=umh / subme=11 / psy=1 / psy_rd=1.02:0.08 / mixed_ref=1 / me_range=32 / chroma_me=1 / trellis=2 / 8x8dct=1 / cqm=0 / deadzone=21,11 / fast_pskip=0 / chroma_qp_offset=-3 / threads=12 / lookahead_threads=3 / sliced_threads=0 / nr=0 / decimate=0 / interlaced=0 / bluray_compat=0 / constrained_intra=0 / bframes=12 / b_pyramid=2 / b_adapt=2 / b_bias=0 / direct=3 / weightb=1 / open_gop=0 / weightp=2 / keyint=240 / keyint_min=23 / scenecut=0 / intra_refresh=0 / rc_lookahead=60 / rc=2pass / mbtree=1 / bitrate=1827 / ratetol=1.0 / qcomp=0.60 / qpmin=0 / qpmax=51 / qpstep=4 / cplxblur=15.0 / qblur=0.5 / vbv_maxrate=50000 / vbv_bufsize=62500 / nal_hrd=none / filler=0 / ip_ratio=1.40 / aq=2:1.00
Default : Да
Forced : Нет
Color range : Limited
Color primaries : BT.709
Transfer characteristics : BT.709
Matrix coefficients : BT.709
Аудио #1
ID : 2
Format : AC-3
Format/Info : Audio Coding 3
Format settings, Endianness : Big
Codec ID : A_AC3
Duration : 1 ч. 34 м.
Bit rate mode : Постоянный
Bit rate : 192 Кбит/сек
Channel(s) : 2 канала
Channel positions : Front: L R
Sampling rate : 48,0 КГц
Frame rate : 31,250 кадров/сек (1536 SPF)
Bit depth : 16 бит
Compression mode : С потерями
Stream size : 130 Мбайт (9%)
Title : MVO [CTC]
Language : Russian
Service kind : Complete Main
Default : Да
Forced : Нет
Аудио #2
ID : 3
Format : AC-3
Format/Info : Audio Coding 3
Format settings, Endianness : Big
Codec ID : A_AC3
Duration : 1 ч. 34 м.
Bit rate mode : Постоянный
Bit rate : 192 Кбит/сек
Channel(s) : 2 канала
Channel positions : Front: L R
Sampling rate : 48,0 КГц
Frame rate : 31,250 кадров/сек (1536 SPF)
Bit depth : 16 бит
Compression mode : С потерями
Stream size : 130 Мбайт (9%)
Title : Василий Горчаков
Language : Russian
Service kind : Complete Main
Default : Нет
Forced : Нет
Текст #1
ID : 4
Format : UTF-8
Codec ID : S_TEXT/UTF8
Codec ID/Info : UTF-8 Plain Text
Duration : 1 ч. 24 м.
Bit rate : 3 бит/сек
Count of elements : 41
Stream size : 2,13 Кбайт (0%)
Title : Forced
Language : Russian
Default : Да
Forced : Да
Текст #2
ID : 5
Format : UTF-8
Codec ID : S_TEXT/UTF8
Codec ID/Info : UTF-8 Plain Text
Duration : 1 ч. 33 м.
Bit rate : 72 бит/сек
Count of elements : 844
Stream size : 49,6 Кбайт (0%)
Title : Full
Language : Russian
Default : Нет
Forced : Нет
Текст #3
ID : 6
Format : UTF-8
Codec ID : S_TEXT/UTF8
Codec ID/Info : UTF-8 Plain Text
Duration : 1 ч. 30 м.
Bit rate : 46 бит/сек
Count of elements : 1029
Stream size : 30,8 Кбайт (0%)
Language : English
Default : Нет
Forced : Нет
Меню
00:00:00.000 : en:Chapter 1
00:06:15.000 : en:Chapter 2
00:13:45.825 : en:Chapter 3
00:20:36.235 : en:Chapter 4
00:26:40.224 : en:Chapter 5
00:33:11.990 : en:Chapter 6
00:42:14.532 : en:Chapter 7
00:48:26.904 : en:Chapter 8
00:55:14.311 : en:Chapter 9
01:04:37.874 : en:Chapter 10
01:13:12.013 : en:Chapter 11
01:23:52.653 : en:Chapter 12
01:31:34.114 : en:Chapter 13

Скриншоты

Релиз:
[Профиль] [ЛС]
Показать сообщения:    

Текущее время: Сегодня 13:00

Часовой пояс: GMT



Вы не можете начинать темы
Вы не можете отвечать на сообщения
Вы не можете редактировать свои сообщения
Вы не можете удалять свои сообщения
Вы не можете голосовать в опросах
Вы не можете прикреплять файлы к сообщениям
Вы не можете скачивать файлы