Меч короля Артура / King Arthur: Legend of the Sword [2017] ( Гай Ричи) [Фэнтези, боевик, драма, приключения] [BD-Remux] [1080p] [DD5.1] [Dub Rus,Ukr,Englis + Subs Rus ,Ukr, ENG] [ iTunes]

 
Автор Сообщение

Враг Нароода ®

Стаж: 2 года 7 месяцев

Сообщений: 176



Награды: 2 (Подробнее)

За внесенный вклад в развитие сайта (Количество: 1) Mega Seeder 1 (Количество: 1)
Торрент-статистика

Создавать темы 29-Июл-2017 05:04

[Цитировать]

--Меч короля Артура / King Arthur: Legend of the Sword-- --Год выпуска: 2017
Выпущено: США , Safehouse Pictures, Village Roadshow Pictures, Warner Bros. Pictures, Weed Road Pictures, Wigram Productions
Жанр: Фэнтези, боевик, драма, приключения
Продолжительность: 02:06:13
--Озвучка 1: Дублированный - - iTunes-Русский
Озвучка 2: Дублированный - - iTunes-Ukrainian
Озвучка 3: Профессиональный многоголосый -Английский -Оригинал
Субтитры: Russian (Forced, iTunes), Russian (iTunes), Ukrainian (Forced, iTunes), English, English (SDH)
--MDB [ --Режиссер:
Гай Ричи--В ролях: Чарли Ханнэм, Астрид Берже-Фрисби, Джуд Лоу, Джимон Хонсу, Эрик Бана, Эйден Гиллен, Фредди Фокс, Крэйг МакГинли, Том Ву, Кингсли Бен-Адир--
Молодой Артур живёт на задворках Лондиниума вместе со своей бандой. Он и понятия не имел о своём королевском происхождении, пока однажды не взял в руки меч Эскалибур. Меч начинает менять Артура. В результате он присоединяется к сопротивлению и таинственной молодой девушке по имени Гвиневра. Ему предстоит научиться понимать магическое оружие, которым он овладел, столкнуться со своими собственными демонами и объединить народ в борьбе против диктатора Вортигерна, убившего его родителей и завладевшего короной.
-- --Качество :BD-Remux 1080p Источник: King.Arthur.Legend.of.the.Sword.2017.COMPLETE.BLURAY-CBGB 1080p
Формат: MKV
Видео кодек: H264
Видео: 24,0Мбит/сек,1920х1080(16.9), в 23.976кадр/сек,AVC (High@L4.1)(CABAC/4 Ref Frames)
Аудио Кодек:AC3
Аудио Кодек:DTS--Аудио #1:AC3 , 384 Kbps, 48.0 KHz, 6 ch- -Дублированный- iTunes-Русский
Аудио #2:DTS, 3968 Kbps, 48.0 KHz,6 ch - -Дублированный- iTunes-Русский
Аудио #3:AC3 , 384 Kbps, 48.0 KHz, 6 ch- -Дублированный- iTunes-Ukrainian
Аудио #4: AC3, 384 Kbps, 48.0 KHz,6 ch - - English-Английский -Оригинал
Аудио #5: DTS, 3968 Kbps, 48.0 KHz,6 ch - - English-Английский -Оригинал
Аудио #6:AC3, 384 Kbps, 48.0 KHz,6 ch - - English-Английский - Descriptive-Оригинал--

MediaInfo

Общее
Уникальный идентификатор : 249037347069674808007810500658336402628 (0xBB5AD930B10A8F30939967115D188CC4)
Полное имя : C:\ХОББИ\ПИРАТИЯ(PIRATIYA)\МЕЧ КОРОЛЯ АРТУРА\KING_ARTHUR_LEGEND_OF_THE_SWORD_2017_Rus_Ukr_[DUB_iTuness]_Eng_DD5.1_N.B_BD-Remux_1080p\King_Arthur_Legend_of_the_Sword_2017_Rus_Ukr_[DUB_iTuness]_Eng_DD5.1_N.B_BD-Remux_1080p.mkv
Формат : Matroska
Версия формата : Version 4 / Version 2
Размер файла : 29,6 Гбайт
Продолжительность : 2 ч. 6 м.
Режим общего битрейта : Переменный
Общий поток : 33,6 Мбит/сек
Название фильма : King Arthur Legend of the Sword @ Nikolai.Baranov & PIRATIYA BD-Remux 1080p
Дата кодирования : UTC 2017-07-28 16:44:56
Программа кодирования : mkvmerge v14.0.0 ('Flow') 64bit
Библиотека кодирования : libebml v1.3.4 + libmatroska v1.4.5
Видео
Идентификатор : 1
Формат : AVC
Формат/Информация : Advanced Video Codec
Профиль формата : High@L4.1
Параметр CABAC формата : Да
Параметр RefFrames формата : 4 кадра
Идентификатор кодека : V_MPEG4/ISO/AVC
Продолжительность : 2 ч. 6 м.
Вид битрейта : Переменный
Битрейт : 24,0 Мбит/сек
Максимальный битрейт : 28,0 Мбит/сек
Ширина : 1920 пикселей
Высота : 1080 пикселей
Соотношение сторон : 16:9
Режим частоты кадров : Постоянный
Частота кадров : 23,976 (24000/1001) кадра/сек
Цветовое пространство : YUV
Субдискретизация насыщенности : 4:2:0
Битовая глубина : 8 бит
Тип развёртки : Прогрессивная
Бит/(Пиксели*Кадры) : 0.484
Размер потока : 21,2 Гбайт (72%)
Заголовок : King_Arthur_Legend_of_the_Sword_2017_Rus_Ukr_[DUB_iTuness]_Eng_DD5.1_N.B_BD-Remux_1080p
Язык : Russian
Default : Да
Forced : Нет
Аудио #1
Идентификатор : 11
Формат : AC-3
Формат/Информация : Audio Coding 3
Параметр Endianness формата : Big
Идентификатор кодека : A_AC3
Продолжительность : 2 ч. 6 м.
Вид битрейта : Постоянный
Битрейт : 384 Кбит/сек
Каналы : 6 каналов
Расположение каналов : Front: L C R, Side: L R, LFE
Частота : 48,0 КГц
Частота кадров : 31,250 кадров/сек (1536 SPF)
Битовая глубина : 16 бит
Метод сжатия : С потерями
Размер потока : 347 Мбайт (1%)
Заголовок : Rus DUB iTuness @DD5.1 AC3 ,384 Kbps, 48.0 KHz, 6 ch
Язык : Russian
ServiceKind/String : Complete Main
Default : Да
Forced : Нет
Аудио #2
Идентификатор : 12
Формат : DTS
Формат/Информация : Digital Theater Systems
Режим : 16
Параметр Endianness формата : Big
Идентификатор кодека : A_DTS
Продолжительность : 2 ч. 6 м.
Вид битрейта : Постоянный
Битрейт : 3968 Кбит/сек
Каналы : 6 каналов
Расположение каналов : Front: L C R, Side: L R, LFE
Частота : 48,0 КГц
Частота кадров : 46,875 кадров/сек (1024 SPF)
Битовая глубина : 16 бит
Метод сжатия : С потерями
Размер потока : 3,50 Гбайт (12%)
Заголовок : Rus DUB iTuness @DTS,3968 Kbps, 48.0 KHz, 6 ch
Язык : Russian
Default : Нет
Forced : Нет
Аудио #3
Идентификатор : 13
Формат : AC-3
Формат/Информация : Audio Coding 3
Параметр Endianness формата : Big
Идентификатор кодека : A_AC3
Продолжительность : 2 ч. 6 м.
Вид битрейта : Постоянный
Битрейт : 384 Кбит/сек
Каналы : 6 каналов
Расположение каналов : Front: L C R, Side: L R, LFE
Частота : 48,0 КГц
Частота кадров : 31,250 кадров/сек (1536 SPF)
Битовая глубина : 16 бит
Метод сжатия : С потерями
Размер потока : 347 Мбайт (1%)
Заголовок : Ukr DUB iTuness @DD5.1 AC3 ,384 Kbps, 48.0 KHz, 6 ch
Язык : Ukrainian
ServiceKind/String : Complete Main
Default : Нет
Forced : Нет
Аудио #4
Идентификатор : 14
Формат : AC-3
Формат/Информация : Audio Coding 3
Параметр Endianness формата : Big
Идентификатор кодека : A_AC3
Продолжительность : 2 ч. 6 м.
Вид битрейта : Постоянный
Битрейт : 384 Кбит/сек
Каналы : 6 каналов
Расположение каналов : Front: L C R, Side: L R, LFE
Частота : 48,0 КГц
Частота кадров : 31,250 кадров/сек (1536 SPF)
Битовая глубина : 16 бит
Метод сжатия : С потерями
Размер потока : 347 Мбайт (1%)
Заголовок : Original@DD5.1 AC3 , 384 Kbps, 48.0 KHz, 6 ch
Язык : English
ServiceKind/String : Complete Main
Default : Нет
Forced : Нет
Аудио #5
Идентификатор : 15
Формат : DTS
Формат/Информация : Digital Theater Systems
Режим : 16
Параметр Endianness формата : Big
Идентификатор кодека : A_DTS
Продолжительность : 2 ч. 6 м.
Вид битрейта : Постоянный
Битрейт : 3968 Кбит/сек
Каналы : 6 каналов
Расположение каналов : Front: L C R, Side: L R, LFE
Частота : 48,0 КГц
Частота кадров : 46,875 кадров/сек (1024 SPF)
Битовая глубина : 16 бит
Метод сжатия : С потерями
Размер потока : 3,50 Гбайт (12%)
Заголовок : Original @DTS,3968 Kbps, 48.0 KHz, 6 ch
Язык : English
Default : Нет
Forced : Нет
Аудио #6
Идентификатор : 16
Формат : AC-3
Формат/Информация : Audio Coding 3
Параметр Endianness формата : Big
Идентификатор кодека : A_AC3
Продолжительность : 2 ч. 6 м.
Вид битрейта : Постоянный
Битрейт : 384 Кбит/сек
Каналы : 6 каналов
Расположение каналов : Front: L C R, Side: L R, LFE
Частота : 48,0 КГц
Частота кадров : 31,250 кадров/сек (1536 SPF)
Битовая глубина : 16 бит
Метод сжатия : С потерями
Размер потока : 347 Мбайт (1%)
Заголовок : Descriptive Original@DD5.1 AC3 , 384 Kbps, 48.0 KHz, 6 ch
Язык : English
ServiceKind/String : Complete Main
Default : Нет
Forced : Нет
Текст #1
Идентификатор : 2
Формат : PGS
Режим смешивания : zlib
Идентификатор кодека : S_HDMV/PGS
Идентификатор кодека/Информация : Picture based subtitle format used on BDs/HD-DVDs
Продолжительность : 11 м. 15 с.
Битрейт : 9394 бит/сек
ElementCount : 46
Размер потока : 774 Кбайт (0%)
Заголовок : Rus - iTuness - Forced
Язык : Russian
Default : Да
Forced : Нет
Текст #2
Идентификатор : 3
Формат : UTF-8
Идентификатор кодека : S_TEXT/UTF8
Идентификатор кодека/Информация : UTF-8 Plain Text
Продолжительность : 11 м. 15 с.
Битрейт : 12 бит/сек
ElementCount : 23
Размер потока : 1,03 Кбайт (0%)
Заголовок : Rus - iTuness - Forced
Язык : Russian
Default : Нет
Forced : Нет
Текст #3
Идентификатор : 4
Формат : PGS
Режим смешивания : zlib
Идентификатор кодека : S_HDMV/PGS
Идентификатор кодека/Информация : Picture based subtitle format used on BDs/HD-DVDs
Продолжительность : 1 ч. 57 м.
Битрейт : 40,1 Кбит/сек
ElementCount : 2212
Размер потока : 33,6 Мбайт (0%)
Заголовок : Rus - iTuness
Язык : Russian
Default : Нет
Forced : Нет
Текст #4
Идентификатор : 5
Формат : UTF-8
Идентификатор кодека : S_TEXT/UTF8
Идентификатор кодека/Информация : UTF-8 Plain Text
Продолжительность : 1 ч. 57 м.
Битрейт : 71 бит/сек
ElementCount : 1106
Размер потока : 61,2 Кбайт (0%)
Заголовок : Rus - iTuness
Язык : Russian
Default : Нет
Forced : Нет
Текст #5
Идентификатор : 6
Формат : PGS
Режим смешивания : zlib
Идентификатор кодека : S_HDMV/PGS
Идентификатор кодека/Информация : Picture based subtitle format used on BDs/HD-DVDs
Продолжительность : 9 м. 56 с.
Битрейт : 3190 бит/сек
ElementCount : 12
Размер потока : 232 Кбайт (0%)
Заголовок : Ukr - iTuness - Forced
Язык : Ukrainian
Default : Нет
Forced : Нет
Текст #6
Идентификатор : 7
Формат : UTF-8
Идентификатор кодека : S_TEXT/UTF8
Идентификатор кодека/Информация : UTF-8 Plain Text
Продолжительность : 9 м. 56 с.
Битрейт : 4 бит/сек
ElementCount : 6
Размер потока : 321 байт (0%)
Заголовок : Ukr - iTuness - Forced
Язык : Ukrainian
Default : Нет
Forced : Нет
Текст #7
Идентификатор : 8
Формат : PGS
Режим смешивания : zlib
Идентификатор кодека : S_HDMV/PGS
Идентификатор кодека/Информация : Picture based subtitle format used on BDs/HD-DVDs
Продолжительность : 2 ч. 4 м.
Битрейт : 29,2 Кбит/сек
ElementCount : 2904
Размер потока : 25,9 Мбайт (0%)
Заголовок : SDH
Язык : English
Default : Нет
Forced : Нет
Текст #8
Идентификатор : 9
Формат : UTF-8
Идентификатор кодека : S_TEXT/UTF8
Идентификатор кодека/Информация : UTF-8 Plain Text
Продолжительность : 1 ч. 59 м.
Битрейт : 61 бит/сек
ElementCount : 1420
Размер потока : 53,4 Кбайт (0%)
Заголовок : SDH
Язык : English
Default : Нет
Forced : Нет
Текст #9
Идентификатор : 10
Формат : UTF-8
Идентификатор кодека : S_TEXT/UTF8
Идентификатор кодека/Информация : UTF-8 Plain Text
Продолжительность : 2 ч. 3 м.
Битрейт : 42 бит/сек
ElementCount : 1255
Размер потока : 38,2 Кбайт (0%)
Заголовок : Original
Язык : English
Default : Нет
Forced : Нет
Меню
00:00:00.000 : en:Глава 01 / en:Глава 01 / en:Глава 01 / en:Глава 01 / en:Глава 01 / en:Глава 01 / en:Глава 01 / en:Глава 01 / en:Глава 01 / en:Глава 01 / en:Глава 01 / en:Глава 01 / en:Глава 01 / en:Глава 01 / en:Глава 01 / en:Глава 01
--

Скриншоты

-- -- -- --Релиз от: Nikolai.Baranov & PIRATIYA -- -- -- --
[Профиль] [ЛС]
Кто просматривает тему:

Показать сообщения:    

Текущее время: Сегодня 05:47

Часовой пояс: GMT



Вы не можете начинать темы
Вы не можете отвечать на сообщения
Вы не можете редактировать свои сообщения
Вы не можете удалять свои сообщения
Вы не можете голосовать в опросах
Вы не можете прикреплять файлы к сообщениям
Вы не можете скачивать файлы