Меч короля Артура / King Arthur: Legend of the Sword (Гай Ричи) [2017 г., фэнтези, боевик, драма, приключения, BDRip-AVC] [DUB (Лицензия)]

 
Автор Сообщение

Bathory ®

Пол:

Стаж: 1 год 5 месяцев

Сообщений: 281



Награды: 3 (Подробнее)

За внесенный вклад в развитие сайта (Количество: 1) Girls (Количество: 1) Друг (Количество: 1)
Торрент-статистика

Создавать темы 27-Июл-2017 21:48

[Цитировать]

Меч короля Артура / King Arthur: Legend of the Sword- Информация о фильме
Название: Меч короля Артура
Оригинальное название: King Arthur: Legend of the Sword
Год выхода: 2017
Жанр: фэнтези, боевик, драма, приключения
Режиссер: Гай Ричи
В ролях: Чарли Ханнэм, Астрид Берже-Фрисби, Джуд Лоу, Джимон Хонсу, Эрик Бана, Эйден Гиллен, Фредди Фокс, Крэйг МакГинли, Том Ву, Кингсли Бен-Адир
О фильме:
Молодой Артур живёт на задворках Лондиниума вместе со своей бандой. Он и понятия не имел о своём королевском происхождении, пока однажды не взял в руки меч Эскалибур. Меч начинает менять Артура. В результате он присоединяется к сопротивлению и таинственной молодой девушке по имени Гвиневра. Ему предстоит научиться понимать магическое оружие, которым он овладел, столкнуться со своими собственными демонами и объединить народ в борьбе против диктатора Вортигерна, убившего его родителей и завладевшего короной.

Страна: США
Студия: Warner Bros., Village Roadshow Pictures, Weed Road Pictures
Продолжительность: 02:06:13
Перевод: Дубляж [Лицензия]
Файл
Кодек: AVC
Качество: BDRip-AVC
Видео: 728x304, 760 kbps, 23,976 fps, 0,143 Bits/(Pixel*Frame)
Звук: AAC, 48 kHz, 2 ch, 64 kbps
Субтитры: русские форсированные, русские полные

MI

Общее
Unique ID : 237481906860670400849348487897787878111 (0xB2A95A0050C6685DB7FEF406C6CF4ADF)
Complete name : F:\King.Arthur.Legend.of.the.Sword.2017.BDRip-AVC.MegaPeer.mkv
Format : Matroska
Format version : Version 4 / Version 2
File size : 745 Мбайт
Duration : 2 ч. 6 м.
Overall bit rate : 825 Кбит/сек
Encoded date : UTC 2017-07-27 21:37:20
Writing application : mkvmerge v13.0.0 ('The Juggler') 64bit
Writing library : libebml v1.3.4 + libmatroska v1.4.5
Видео
ID : 1
Format : AVC
Format/Info : Advanced Video Codec
Format profile : High@L4.1
Format settings, CABAC : Да
Format settings, ReFrames : 12 кадров
Codec ID : V_MPEG4/ISO/AVC
Duration : 2 ч. 6 м.
Bit rate : 760 Кбит/сек
Width : 728 пикселей
Height : 304 пикселя
Display aspect ratio : 2,40:1
Frame rate mode : Постоянный
Frame rate : 23,976 (24000/1001) кадра/сек
Color space : YUV
Chroma subsampling : 4:2:0
Bit depth : 8 бит
Scan type : Прогрессивная
Bits/(Pixel*Frame) : 0.143
Stream size : 686 Мбайт (92%)
Writing library : x264 core 152 r2851 ba24899
Encoding settings : cabac=1 / ref=12 / deblock=1:-2:-1 / analyse=0x3:0x133 / me=umh / subme=11 / psy=1 / psy_rd=1.00:0.10 / mixed_ref=1 / me_range=32 / chroma_me=1 / trellis=2 / 8x8dct=1 / cqm=0 / deadzone=21,11 / fast_pskip=0 / chroma_qp_offset=-3 / threads=9 / lookahead_threads=2 / sliced_threads=0 / nr=0 / decimate=0 / interlaced=0 / bluray_compat=0 / constrained_intra=0 / bframes=14 / b_pyramid=2 / b_adapt=2 / b_bias=0 / direct=3 / weightb=1 / open_gop=0 / weightp=2 / keyint=230 / keyint_min=22 / scenecut=0 / intra_refresh=0 / rc_lookahead=60 / rc=2pass / mbtree=1 / bitrate=760 / ratetol=1.0 / qcomp=0.60 / qpmin=0 / qpmax=51 / qpstep=4 / cplxblur=15.0 / qblur=0.5 / vbv_maxrate=50000 / vbv_bufsize=62500 / nal_hrd=none / filler=0 / ip_ratio=1.40 / aq=2:1.00
Default : Да
Forced : Нет
Аудио
ID : 2
Format : AAC
Format/Info : Advanced Audio Codec
Format profile : HE-AAC / LC
Codec ID : A_AAC
Duration : 2 ч. 6 м.
Bit rate : 64,0 Кбит/сек
Channel(s) : 2 канала
Channel positions : Front: L R
Sampling rate : 48,0 КГц / 24,0 КГц
Frame rate : 23,438 кадра/сек (1024 spf)
Compression mode : С потерями
Delay relative to video : 31 мс.
Stream size : 57,8 Мбайт (8%)
Language : Russian
Default : Да
Forced : Нет
Текст #1
ID : 3
Format : UTF-8
Codec ID : S_TEXT/UTF8
Codec ID/Info : UTF-8 Plain Text
Duration : 11 м.
Bit rate : 12 бит/сек
Count of elements : 23
Stream size : 1,03 Кбайт (0%)
Language : Russian
Default : Да
Forced : Да
Текст #2
ID : 4
Format : UTF-8
Codec ID : S_TEXT/UTF8
Codec ID/Info : UTF-8 Plain Text
Duration : 1 ч. 57 м.
Bit rate : 71 бит/сек
Count of elements : 1106
Stream size : 61,2 Кбайт (0%)
Language : Russian
Default : Нет
Forced : Нет
Меню
00:00:00.000 : en:1
00:12:43.000 : en:2
00:21:05.000 : en:3
00:32:32.000 : en:4
00:43:09.000 : en:5
00:56:48.000 : en:6
01:06:48.000 : en:7
01:14:13.000 : en:8
01:23:44.000 : en:9
01:36:37.000 : en:10
01:46:57.000 : en:11
01:58:59.000 : en:12

Скриншоты

Релиз:
[Профиль] [ЛС]
Кто просматривает тему:

Показать сообщения:    

Текущее время: Сегодня 08:22

Часовой пояс: GMT



Вы не можете начинать темы
Вы не можете отвечать на сообщения
Вы не можете редактировать свои сообщения
Вы не можете удалять свои сообщения
Вы не можете голосовать в опросах
Вы не можете прикреплять файлы к сообщениям
Вы не можете скачивать файлы