Меч дракона / Tian jiang xiong shi (2015) BDRip 1080p | L2

 
Автор Сообщение

sergej644 ®

Пол:

Стаж: 4 года 11 месяцев

Сообщений: 6045

Откуда: Soviet Union



Награды: Нет

Торрент-статистика

Создавать темы 18-Июн-2015 21:53

[Цитировать]

Информация о фильме
Название: Меч дракона
Оригинальное название: Tian jiang xiong shi / Dragon Blade
Год выхода: 2015
Жанр: Боевик, драма, приключения
Режиссер: Дэниэл Ли
В ролях: Джеки Чан, Джон Кьюсак, Эдриан Броуди, Шарни Винсон, Линь Пэн, Бенни Уркидез, Ши Вон Чхве, Темур Мамисашвили, Томер Оз, Кевин Ли, Лори, Пол Филип Кларк, Филипп Жоли, Ваннесс Ву, Джоэль Адриан, Макс Хуан, Рэйден Интегра, Мюррей Клайв Уокер, Вандер МакЛеод, Фатих Угурлу
О фильме: Действие фильма разворачивается в Древнем Китае во времена правления династии Хань. Римский полководец Луция с легионом своих солдат оказывается на территории Китая. В это же время командир отряда охраны Западного региона Хо Ань в результате предательства своих врагов становится рабом. И этим двум воинам было суждено встретиться в Западной пустыне, где развернётся эпическое сражение. Однако биться они будут не друг против друга, как можно было бы подумать, а против алчного императора Тиберия за суверенитет Китая.

Страна: Китай / Beijing Cultural Assets Chinese Film and Television Fund, Home Media & Entertainment Fund
Продолжительность: 02:07:09
Перевод: Любительский (двухголосый, закадровый) - Студия Пиратского дубляжа
Файл
Качество: BDRip 1080p
Формат: MKV
Видео: MPEG4/AVC, 16.4 Мбит/сек, 1920х804 (2.40:1), 24.000 кадра/сек
Аудио 1: AC3, 2 канала, 384 Кбит/сек | Русский
Аудио 2: DTS, 6 каналов, 1509 Кбит/сек | Английский
Субтитры: Английские
Навигация по главам: Есть

MediaInfo:

Общее
Уникальный идентификатор : 220384912689203568863328717753708687898 (0xA5CC971B8974EE02894BC5547D47B21A)
Полное имя : Dragon Blade. (2015) BDRip 1080p.mkv
Формат : Matroska
Версия формата : Version 2
Размер файла : 16,6 Гбайт
Продолжительность : 2 ч. 7 м.
Общий поток : 18,7 Мбит/сек
Название фильма : Dragon Blade. 2015
Дата кодирования : UTC 2015-06-08 13:05:29
Программа кодирования : mkvmerge v5.8.0 ('No Sleep / Pillow') built on Sep 2 2012 15:37:04
Библиотека кодирования : libebml v1.2.3 + libmatroska v1.3.0
Видео
Идентификатор : 1
Формат : AVC
Формат/Информация : Advanced Video Codec
Профиль формата : High@L4.1
Параметр CABAC формата : Да
Параметр ReFrames формата : 5 кадров
Идентификатор кодека : V_MPEG4/ISO/AVC
Продолжительность : 2 ч. 7 м.
Битрейт : 16,4 Мбит/сек
Ширина : 1920 пикселей
Высота : 804 пикселя
Соотношение сторон : 2,40:1
Режим частоты кадров : Постоянный
Частота кадров : 24,000 кадра/сек
Цветовое пространство : YUV
Субдискретизация насыщенности : 4:2:0
Битовая глубина : 8 бит
Тип развёртки : Прогрессивная
Бит/(Пиксели*Кадры) : 0.443
Размер потока : 14,6 Гбайт (88%)
Заголовок : MovietaM
Библиотека кодирования : x264 core 142 r2431+42 c69a006 tMod [8-bit@4:2:0 X86_64]
Настройки программы : cabac=1 / ref=5 / deblock=1:-3:-3 / analyse=0x3:0x113 / me=umh / subme=10 / psy=1 / fade_compensate=0.00 / psy_rd=0.90:0.00 / mixed_ref=1 / me_range=64 / chroma_me=1 / trellis=2 / 8x8dct=1 / cqm=0 / deadzone=21,11 / fast_pskip=0 / chroma_qp_offset=-2 / threads=18 / lookahead_threads=4 / sliced_threads=0 / nr=0 / decimate=0 / interlaced=0 / bluray_compat=0 / constrained_intra=0 / fgo=0 / bframes=10 / b_pyramid=2 / b_adapt=2 / b_bias=0 / direct=3 / weightb=1 / open_gop=0 / weightp=2 / keyint=240 / keyint_min=24 / scenecut=40 / intra_refresh=0 / rc_lookahead=60 / rc=crf / mbtree=0 / crf=18.5000 / qcomp=0.70 / qpmin=0:0:0 / qpmax=69:69:69 / qpstep=4 / vbv_maxrate=50000 / vbv_bufsize=45000 / crf_max=0.0 / nal_hrd=none / filler=0 / ip_ratio=1.20 / pb_ratio=1.20 / aq=3:0.80 / aq-sensitivity=10.00 / aq-factor=1.00:1.00:1.00 / aq2=0 / aq3=0
Язык : English
Default : Да
Forced : Нет
Аудио #1
Идентификатор : 2
Формат : AC-3
Формат/Информация : Audio Coding 3
Расширение режима : CM (complete main)
Параметр Endianness формата : Big
Идентификатор кодека : A_AC3
Продолжительность : 2 ч. 7 м.
Вид битрейта : Постоянный
Битрейт : 384 Кбит/сек
Каналы : 2 канала
Расположение каналов : Front: L R
Частота : 48,0 КГц
Битовая глубина : 16 бит
Метод сжатия : С потерями
Размер потока : 349 Мбайт (2%)
Заголовок : L2 | Студия Пиратского дубляжа
Язык : Russian
Default : Да
Forced : Нет
Аудио #2
Идентификатор : 3
Формат : DTS
Формат/Информация : Digital Theater Systems
Режим : 16
Параметр Endianness формата : Big
Идентификатор кодека : A_DTS
Продолжительность : 2 ч. 7 м.
Вид битрейта : Постоянный
Битрейт : 1509 Кбит/сек
Каналы : 6 каналов
Расположение каналов : Front: L C R, Side: L R, LFE
Частота : 48,0 КГц
Битовая глубина : 24 бит
Метод сжатия : С потерями
Размер потока : 1,34 Гбайт (8%)
Заголовок : Original
Язык : English
Default : Нет
Forced : Нет
Текст
Идентификатор : 4
Формат : UTF-8
Идентификатор кодека : S_TEXT/UTF8
Идентификатор кодека/Информация : UTF-8 Plain Text
Заголовок : Full
Язык : English
Default : Нет
Forced : Нет
Меню
00:00:00.000 : en:00:00:00.000
00:06:37.292 : en:00:06:37.292
00:13:24.583 : en:00:13:24.583
00:23:58.875 : en:00:23:58.875
00:33:57.042 : en:00:33:57.042
00:40:30.375 : en:00:40:30.375
00:50:12.583 : en:00:50:12.583
00:59:04.375 : en:00:59:04.375
01:04:50.500 : en:01:04:50.500
01:14:54.542 : en:01:14:54.542
01:19:41.292 : en:01:19:41.292
01:26:44.417 : en:01:26:44.417
01:32:30.333 : en:01:32:30.333
01:38:30.250 : en:01:38:30.250
01:45:03.875 : en:01:45:03.875
01:52:01.542 : en:01:52:01.542
[Профиль] [ЛС]
Кто просматривает тему:

Показать сообщения:    

Текущее время: Сегодня 16:25

Часовой пояс: GMT



Вы не можете начинать темы
Вы не можете отвечать на сообщения
Вы не можете редактировать свои сообщения
Вы не можете удалять свои сообщения
Вы не можете голосовать в опросах
Вы не можете прикреплять файлы к сообщениям
Вы не можете скачивать файлы