Меч дракона в 3Д / Dragon Blade 3D (Дэниэл Ли / Daniel L) [2015, Исторический, Боевик, Драма, BDrip, 1080p] OverUnder / Вертикальная стереопара

 
Автор Сообщение

TorrentFilm ®

Пол:

Стаж: 2 года

Сообщений: 7741



Награды: Нет

Торрент-статистика

Создавать темы 01-Авг-2015 00:05

[Цитировать]

Меч дракона / Dragon Blade
Год выпуска: 2015
Страна: Китай (Sparkle Roll Media, Huayi Brothers Media, Shanghai Film Group, Visualizer Film Company, Fable House)
Жанр: Исторический, Боевик, Драма
Продолжительность: 02:07:11
Перевод: Многоголосый закадровый(Студия Пиратского дубляжа) + Одноголосый закадровый ( А. Дольский)
Русские субтитры: нет
Режиссер на русском: Дэниэл Ли / Daniel Lee
В ролях: Джеки Чан, Джон Кьюсак, Эдриан Броуди, Шарни Винсон, Линь Пэн, Бенни Уркидез, Ши Вон Чхве, Темур Мамисашвили, Томер Оз, Кевин Ли, Лори, Пол Филип Кларк, Филипп Жоли, Ваннесс Ву, Джоэль Адриан, Макс Хуан, Рэйден Интегра, Мюррей Клайв Уокер, Вандер МакЛеод, Фатих Угурлу
Описание: Действие фильма разворачивается в Древнем Китае во времена правления династии Хань. Римский полководец Луция с легионом своих солдат оказывается на территории Китая. В это же время командир отряда охраны Западного региона Хо Ань в результате действий своих врагов становится рабом. И этим двум воинам было суждено встретиться в Западной пустыне, где развернётся эпическое сражение. Однако биться они будут не друг против друга, как можно было бы подумать, а против алчного императора Тиберия за суверенитет Китая.
Сэмпл: http://sendfile.su/1134672
Качество: BDrip
Контейнер: MKV
Формат 3D: OverUnder / Вертикальная стереопара
Порядок ракурсов: левый ракурс первый
Видео кодек: x264
Аудио кодек: AC3
Видео: AVC / High@L5.0 / 23,976 fps / 1920х1600 / 16,8 Мбит/сек
Аудио: Русский / AC3 / 48 KHz / 5.1 ch / 640 Кбит/сек(Многоголосый закадровый(Студия Пиратского дубляжа))by Ash61
Аудио 2: Русский / AC3 / 48 KHz / 5.1 ch / 640 Кбит/сек(Одноголосый закадровый ( А. Дольский))
Русская двухголосая озвучка (Студии Пиратского Дубляжа) получена вставкой русских фраз или блоков фраз во фронтальные каналы (левый и правый) оригинальной дороги. (by Ash61)
Релиз группы: ВНИМАНИЕ ! На встроенных ТВ-плеерах работать не будет!!!
ТВ Samsung в названии которого есть надпись Ultra HD , и LG Ultra HD 800 серии(исключение: LG UB850v не воспроизводит),Xiaomi Mi TV 2 воспроизводят полные стереопары встроенными плеерами
Железные плееры на которых воспроизводятся полные стереопары:Popcorn C-200 , Dune HD Smart D1 , Dune HD DUO , Dune HD Smart H1 , Dune HD Smart B1 , Dune HD Max , Dune HD TV-303D , Dune HD Base 3D, Philips HMP7001, Aura HD

MediaInfo

Общее
Уникальный идентификатор : 223696306362296363062674514661168616035 (0xA84A576BB4760C298307BF9AA5D79263)
Полное имя : F:\видео\DRAGON BLADE.Rip by SeRoGa00.mkv
Формат : Matroska
Версия формата : Version 2
Размер файла : 16,4 Гбайт
Продолжительность : 2 ч. 7 м.
Общий поток : 18,4 Мбит/сек
Дата кодирования : UTC 2015-07-05 12:55:27
Программа кодирования : mkvmerge v3.4.0 ('Rapunzel') сборка от May 15 2010 09:38:20
Библиотека кодирования : libebml v0.8.0 + libmatroska v0.9.0
Видео
Идентификатор : 1
Формат : AVC
Формат/Информация : Advanced Video Codec
Профиль формата : High@L5.0
Параметр CABAC формата : Да
Параметр ReFrames формата : 4 кадра
Идентификатор кодека : V_MPEG4/ISO/AVC
Продолжительность : 2 ч. 7 м.
Битрейт : 16,8 Мбит/сек
Ширина : 1920 пикселей
Высота : 1600 пикселей
Соотношение сторон : 1,200
Частота кадров : 23,976 кадра/сек
Цветовое пространство : YUV
Субдискретизация насыщенности : 4:2:0
Битовая глубина : 8 бит
Тип развёртки : Прогрессивная
Бит/(Пиксели*Кадры) : 0.228
Размер потока : 14,9 Гбайт (91%)
Заголовок : Rip by SeRoGa00
Библиотека кодирования : x264 core 142 r2479 dd79a61
Настройки программы : cabac=1 / ref=4 / deblock=1:-3:-3 / analyse=0x3:0x113 / me=umh / subme=9 / psy=1 / psy_rd=1.00:0.15 / mixed_ref=1 / me_range=24 / chroma_me=1 / trellis=2 / 8x8dct=1 / cqm=0 / deadzone=21,11 / fast_pskip=1 / chroma_qp_offset=-3 / threads=9 / lookahead_threads=1 / sliced_threads=0 / nr=0 / decimate=1 / interlaced=0 / bluray_compat=0 / constrained_intra=0 / bframes=8 / b_pyramid=2 / b_adapt=2 / b_bias=0 / direct=3 / weightb=1 / open_gop=0 / weightp=2 / keyint=250 / keyint_min=23 / scenecut=40 / intra_refresh=0 / rc_lookahead=60 / rc=crf / mbtree=1 / crf=18.0 / qcomp=0.60 / qpmin=10 / qpmax=69 / qpstep=4 / vbv_maxrate=30000 / vbv_bufsize=30000 / crf_max=0.0 / nal_hrd=none / filler=0 / ip_ratio=1.40 / aq=1:1.00
Язык : English
Default : Нет
Forced : Нет
Аудио #1
Идентификатор : 2
Формат : AC-3
Формат/Информация : Audio Coding 3
Расширение режима : CM (complete main)
Параметр Endianness формата : Big
Идентификатор кодека : A_AC3
Продолжительность : 2 ч. 7 м.
Вид битрейта : Постоянный
Битрейт : 640 Кбит/сек
Каналы : 6 каналов
Расположение каналов : Front: L C R, Side: L R, LFE
Частота : 48,0 КГц
Битовая глубина : 16 бит
Метод сжатия : С потерями
Размер потока : 582 Мбайт (3%)
Язык : Russian
Default : Да
Forced : Нет
Аудио #2
Идентификатор : 3
Формат : AC-3
Формат/Информация : Audio Coding 3
Расширение режима : CM (complete main)
Параметр Endianness формата : Big
Идентификатор кодека : A_AC3
Продолжительность : 2 ч. 7 м.
Вид битрейта : Постоянный
Битрейт : 640 Кбит/сек
Каналы : 6 каналов
Расположение каналов : Front: L C R, Side: L R, LFE
Частота : 48,0 КГц
Битовая глубина : 16 бит
Метод сжатия : С потерями
Размер потока : 582 Мбайт (3%)
Язык : Russian
Default : Нет
Forced : Нет

Скриншоты


[Профиль] [ЛС]
Кто просматривает тему:

Показать сообщения:    

Текущее время: Сегодня 12:49

Часовой пояс: GMT



Вы не можете начинать темы
Вы не можете отвечать на сообщения
Вы не можете редактировать свои сообщения
Вы не можете удалять свои сообщения
Вы не можете голосовать в опросах
Вы не можете прикреплять файлы к сообщениям
Вы не можете скачивать файлы