Мечта Джейн / Ggumui Jein (2016) WEBRip 1080p | GreenРай Studio

 
Автор Сообщение

BOSS ®

Пол:

Стаж: 3 года 9 месяцев

Сообщений: 11205

Откуда: ODESSA



Награды: 22 (Подробнее)

Mega Seeder 2 (Количество: 1) Top Releaser 4 (Количество: 1) Top Keeper 4 (Количество: 1)
Торрент-статистика

Создавать темы 10-Июн-2018 07:05

[Цитировать]

Информация о фильме
Год выхода: 2016
Наименование: Мечта Джейн
Оригинальное наименование: Ggumui Jein
Произведено: Корея Южная
Жанр: драма
Режиссер постановщик: Чо Хён-хун
В главных ролях: Ли Мин-джи, Ку Гё-хван, Ли Джу-ён, Пак Кан-соп, Пак Кён-хе, Ли Хак-чу, Пак Хён-ён
О фильме: Беглянка Су-хён ужасно боится одиночества, поэтому постоянно ищет людей, с кем можно быть рядом. Однажды она встречает трансгендера Джейн и присоединяется к её небольшой компании таких же изгоев.

Файл
Качество: WEBRip 1080p
Видео данные: MKV, 1920x800 (2.40:1), 23.976 fps, 4426 Кбит/с
Аудио данные: AAC, 2 ch, 192 Кбит/с
Перевод: Любительский многоголосый (GreenРай Studio)
Продолжительность: 01:44:52

Медиаинфо

General
Unique ID : 14376680769169847667191335701320532027 (0xAD0D9167D813F66DEF89A2D63FB803B)
Complete name : C:DownloadsGgumui.Jein.2016.P.WEB-DL.1080p.mkv
Format : Matroska
Format version : Version 4 / Version 2
File size : 3.38 GiB
Duration : 1 h 44 min
Overall bit rate : 4 618 kb/s
Encoded date : UTC 2018-06-09 12:24:58
Writing application : mkvmerge v21.0.0 ('Tardigrades Will Inherit The Earth') 64-bit
Writing library : libebml v1.3.5 + libmatroska v1.4.8
Video
ID : 1
Format : AVC
Format/Info : Advanced Video Codec
Format profile : High@L4
Format settings : CABAC / 1 Ref Frames
Format settings, CABAC : Yes
Format settings, RefFrames : 1 frame
Format settings, GOP : M=1, N=30
Codec ID : V_MPEG4/ISO/AVC
Duration : 1 h 44 min
Bit rate : 4 426 kb/s
Width : 1 920 pixels
Height : 800 pixels
Display aspect ratio : 2.40:1
Frame rate mode : Constant
Frame rate : 23.976 (24000/1001) FPS
Color space : YUV
Chroma subsampling : 4:2:0
Bit depth : 8 bits
Scan type : Progressive
Bits/(Pixel*Frame) : 0.120
Stream size : 3.24 GiB (96%)
Language : English
Default : Yes
Forced : No
Audio
ID : 2
Format : AAC
Format/Info : Advanced Audio Codec
Format profile : LC
Codec ID : A_AAC-2
Duration : 1 h 44 min
Bit rate : 192 kb/s
Channel(s) : 2 channels
Channel positions : Front: L R
Sampling rate : 48.0 kHz
Frame rate : 46.875 FPS (1024 SPF)
Compression mode : Lossy
Stream size : 142 MiB (4%)
Language : English
Default : Yes
Forced : No
Внимание, имеется видео и аудио реклама от спонсора показа

Скриншоты

Релиз от:
[Профиль] [ЛС]
Кто просматривает тему:

Форум Тема Автор Размер
BBC BBC : Вена. Империя, династия и мечта / Vienna: Empire, Dynasty and Dream [серии 3 из 3] (Dominic Ozanne) [2016 г., Документальный, история, HDTVRip-AVC 720p] skorpionN 4.58 GB
Фильмы 2014 года В моих мечтах / In My Dreams (Кенни Леон / Kenny Leon) [2014, США, драма, мелодрама, WEB-DLRip] MVO (iTunes) TorrentFilm 745 MB
Биографии и личности Великие мечтатели / Великі мрійники [выпуски 1-5] (Тарас Шаповал) [2011-2014 г., Документальный цикл, игровой, биографический, история, HDTVRip-AVC 720p] skorpionN 8.77 GB
Фильмы 2014 года Где живет мечта / Where Hope Grows (2014) HDRip | P Russian Mafia 1.45 GB
R.G.TorrentFilm Video Есть у летчика мечта (Валерий Игнатьев) [2002 г., Документальный, авиация, SATRip] Один 777 261 MB
Фильмы (HD Rips | 720p, 1080p) Женщина, которая мечтала о мужчине / Kvinden der drømte om en mand (2010) BDRip 720p | L1 Russian Mafia 3.96 GB
Фильмы 2010 года Женщина, которая мечтала о мужчине / Kvinden der drømte om en mand (2010) HDRip от Koenig | L1 Russian Mafia 1.5 GB
Фильмы 2014 года Когда животные видят сны / Когда звери мечтают / Når dyrene drømmer / When Animals Dream (Йонас Александер Арнбю / Jonas Alexander Arnby) [2014, Дания, Ужасы, драма, DVDRip] DVO (datynet... TorrentFilm 1.38 GB
Показать сообщения:    

Текущее время: Сегодня 20:26

Часовой пояс: GMT



Вы не можете начинать темы
Вы не можете отвечать на сообщения
Вы не можете редактировать свои сообщения
Вы не можете удалять свои сообщения
Вы не можете голосовать в опросах
Вы не можете прикреплять файлы к сообщениям
Вы не можете скачивать файлы