Мечтать не вредно (Юрий Павлов) [2012, мелодрама, HDTV 1080i]

 
Автор Сообщение

TorrentFilm ®

Пол:

Стаж: 2 года

Сообщений: 7741



Награды: Нет

Торрент-статистика

Создавать темы 01-Янв-2016 00:11

[Цитировать]

Мечтать не вредно
Страна: Россия, Украина
Жанр: мелодрама
Год выпуска: 2012
Продолжительность: 01:30:30
Режиссёр: Юрий Павлов
В ролях: Мария Аниканова, Мария Куликова, Денис Матросов, Анна Казючиц, Алексей Зубков, Дмитрий Суржиков, Виктор Сарайкин, Ада Роговцева, Сергей Калантай, Галина Корнеева, Яна Глущенко, Заза Чантурия, Михаил Жонин, Петр Бойко
Описание: Свету все считают безнадежной "старой девой". Да и сама Cвета давно махнула на себя рукой: ни макияжа, ни причесок, ни нарядов. Муж сестры знакомит ее со своим помощником Кириллом – застенчивым старым холостяком, которому Света очень понравилась. Однако, Кирилл у Светы симпатии не вызвал, но она молчит об этом, чтобы не обижать Кирилла. В это время в город из-за границы возвращается прежний возлюбленный Светы. Он – новый владелец ресторана, в котором героиня работает официанткой. Теперь это - один из самых завидных женихов...
Доп. информация: Производство - "Бастион" (Россия), "УПС" (Украина).
Семпл: http://multi-up.com/832483
Качество видео: HDTV 1080i
Формат видео: MPEG-TS
Видео: AVC, 1920x1080 (16:9), 25 fps, 7836 Kbps, 0.151 bit/pixel
Аудио: MPEG Audio, 48 kHz, stereo, 192 Kbps

MI

GeneralID : 1 (0x1)Complete name : Мечтать не вредно (2012, Мелодрама, HDTV) (MYDIMKA).tsFormat : MPEG-TSFile size : 5.32 GiBDuration : 1h 29mnOverall bit rate mode : VariableOverall bit rate : 8 472 Kbps
VideoID : 2911 (0xB5F)Menu ID : 1 (0x1)Format : AVCFormat/Info : Advanced Video CodecFormat profile : High@L4.0Format settings, CABAC : YesFormat settings, ReFrames : 4 framesCodec ID : 27Duration : 1h 29mnBit rate : 7 860 KbpsWidth : 1 920 pixelsHeight : 1 080 pixelsDisplay aspect ratio : 16:9Frame rate : 25.000 fpsColor space : YUVChroma subsampling : 4:2:0Bit depth : 8 bitsScan type : MBAFFBits/(Pixel*Frame) : 0.152Stream size : 4.94 GiB (93%)
AudioID : 2912 (0xB60)Menu ID : 1 (0x1)Format : MPEG AudioFormat version : Version 1Format profile : Layer 2Codec ID : 3Duration : 1h 29mnBit rate mode : ConstantBit rate : 192 KbpsChannel(s) : 2 channelsSampling rate : 48.0 KHzCompression mode : LossyStream size : 124 MiB (2%)Language : Russian

Скриншот с названием фильма

Скриншоты


[Профиль] [ЛС]
Показать сообщения:    

Текущее время: Сегодня 14:39

Часовой пояс: GMT



Вы не можете начинать темы
Вы не можете отвечать на сообщения
Вы не можете редактировать свои сообщения
Вы не можете удалять свои сообщения
Вы не можете голосовать в опросах
Вы не можете прикреплять файлы к сообщениям
Вы не можете скачивать файлы