Механик / The Mechanic (Саймон Уэст / Simon West) [2011, США, Боевик, триллер, криминал, BDRip] Dub + AVO (Гаврилов) + VO (Zamez) + Original (Eng) + Subs (Rus, Eng)

 
Автор Сообщение

Russian Mafia ®

Пол:

Стаж: 1 год 8 месяцев

Сообщений: 4256



Награды: 10 (Подробнее)

Top Releaser 3 (Количество: 1) За внесенный вклад в развитие сайта (Количество: 1) Mega Seeder 5 (Количество: 1)
Торрент-статистика

Создавать темы 28-Мар-2016 19:04

[Цитировать]

Механик / The Mechanic- Год выпуска: 2011
Выпущено: США / Millennium Films, Nu Image Entertainment GmbH
Жанр: боевик, триллер, криминал
Продолжительность: 01:32:44
Перевод (1): Профессиональный (полное дублирование) R5
Перевод (2): Авторский (одноголосый закадровый) Андрей Гаврилов
Перевод (3): Одноголосый закадровый Zamez
Перевод (4): Оригинальная дорожка
Cубтитры: Русские, Английские (внешние .srt*)-Режиссер:
Саймон Уэст / Simon West-В ролях:
Джейсон Стэйтем (Arthur Bishop), Бен Фостер (Steve McKenna), Тони Голдуин (Dean), Дональд Сазерленд (Harry McKenna), Джефф Чейз (Burke), Мини Анден (Sarah), Джеймс Логан (Jorge Lara), Эдди Дж. Фернандез (Lara's Guard), Джошуа Бриджуотер (Car Jacker), Джон МакКоннелл (Vaughn)-Описание:
Артур Бишоп — «Механик», высокопрофессиональный безукоризненный киллер, который всегда работает по правилам — «чисто» и без следов. Такая работа требует полного самообладания и беспристрастности, и в своём деле ему нет равных. Бишоп всегда работал один, но ему пришлось стать наставником молодого и отчаянного Стива. Методичный профессионал и импульсивный ученик теперь на пару «устраняют проблемы», но рано или поздно они сойдутся в смертельной схватке…-IMDB | КиноПоиск |-Качество: BDRip [Blu-ray disc]
Формат: AVI
Видео: 720x304 (2.37:1), 23.976 fps, XviD build 73 ~1793 kbps avg, 0.34 bit/pixel
Аудио #1: 48 kHz, AC3 Dolby Digital, 3/2 (L,C,R,l,r) + LFE ch, ~448.00 kbps avg (DUB) R5-(1.46 Gb)-Аудио #2: 48 kHz, AC3 Dolby Digital, 3/2 (L,C,R,l,r) + LFE ch, ~448.00 kbps avg (AVO) Гаврилов отдельно
Аудио #3: 48 kHz, AC3 Dolby Digital, 3/2 (L,C,R,l,r) + LFE ch, ~448.00 kbps avg (VO) Zamez отдельно
Аудио #4: 48 kHz, AC3 Dolby Digital, 3/2 (L,C,R,l,r) + LFE ch, ~448.00 kbps avg (ENG) отдельно
-

Скриншоты

MediaInfo

General
Complete name                            : D:\Mehanik_2011_BDRip_by_Dalemake.avi
Format                                   : AVI
Format/Info                              : Audio Video Interleave
File size                                : 1.46 GiB
Duration                                 : 1h 32mn
Overall bit rate                         : 2 250 Kbps
Writing application                      : VirtualDubMod 1.5.10.3 | www.virtualdub-fr.org || (build 2550/release)
Writing library                          : VirtualDubMod build 2550/release
[br]
Video
ID                                       : 0
Format                                   : MPEG-4 Visual
Format profile                           : Advanced Simple@L5
Format settings, BVOP                    : 1
Format settings, QPel                    : No
Format settings, GMC                     : No warppoints
Format settings, Matrix                  : Custom
Codec ID                                 : XVID
Codec ID/Hint                            : XviD
Duration                                 : 1h 32mn
Bit rate                                 : 1 793 Kbps
Width                                    : 720 pixels
Height                                   : 304 pixels
Display aspect ratio                     : 2.35:1
Frame rate                               : 23.976 fps
Color space                              : YUV
Chroma subsampling                       : 4:2:0
Bit depth                                : 8 bits
Scan type                                : Progressive
Compression mode                         : Lossy
Bits/(Pixel*Frame)                       : 0.342
Stream size                              : 1.16 GiB (80%)
Writing library                          : XviD 73
[br]
Audio
ID                                       : 1
Format                                   : AC-3
Format/Info                              : Audio Coding 3
Mode extension                           : CM (complete main)
Format settings, Endianness              : Big
Codec ID                                 : 2000
Duration                                 : 1h 32mn
Bit rate mode                            : Constant
Bit rate                                 : 448 Kbps
Channel(s)                               : 6 channels
Channel positions                        : Front: L C R, Side: L R, LFE
Sampling rate                            : 48.0 KHz
Bit depth                                : 16 bits
Compression mode                         : Lossy
Stream size                              : 297 MiB (20%)
Alignment                                : Split accross interleaves
Interleave, duration                     : 42 ms (1.00 video frame)
Interleave, preload duration             : 500 ms
[Профиль] [ЛС]
Показать сообщения:    

Текущее время: Сегодня 22:09

Часовой пояс: GMT



Вы не можете начинать темы
Вы не можете отвечать на сообщения
Вы не можете редактировать свои сообщения
Вы не можете удалять свои сообщения
Вы не можете голосовать в опросах
Вы не можете прикреплять файлы к сообщениям
Вы не можете скачивать файлы