Механик / The Mechanik (Дольф Лундгрен / Dolph Lundgren) [2005, США, Германия, боевик, триллер, драма, HDRip] DVO (REN-TV) + Original

 
Автор Сообщение

Russian Mafia ®

Пол:

Стаж: 1 год 8 месяцев

Сообщений: 4255



Награды: 10 (Подробнее)

Mega Seeder 5 (Количество: 1) Mega Seeder 1 (Количество: 1) Mega Seeder 3 (Количество: 1)
Торрент-статистика

Создавать темы 28-Мар-2016 19:02

[Цитировать]

Механик / The Mechanik -Год выпуска: 2005
Страна: США, Германия
Студия: Nu Image
Жанр: боевик, триллер, драма
Продолжительность: 01:30:02
Перевод: Профессиональный (двухголосый закадровый) REN-TV |VHS|
Cубтитры: нет
Оригинальная аудиодорожка: английский
-Режиссер: Дольф Лундгрен / Dolph Lundgren-В ролях: Дольф Лундгрен, Бен Кросс, Иван Петрушинов, Оливия Ли, Райхо Василев, Ассен Блатечки, Антони Агиров, Валери Йорданов, Деян Ангелов, Ивайло Герасков и другие.-Женские роли озвучивала (REN-TV): Марина Бакина.-Описание: 7 лет назад десантник — «афганец» Николай Черенко, ставший простым механиком, жестоко отомстил банде наркодилера Саши, который убил его семью. Но Коля не знал, что, всадив в лицо гангстера пулю, он не оборвал его поганую жизнь. Перебравшись в Лос-Анджелес, Коля получает неожиданное предложение спасти красавицу Юлию, попавшую в России в лапы бандитов-отморозков. Узнав, что девушку похитил мафиози, убивший когда-то его семью, Николай понимает, что у него нет выбора. Для воина-одиночки миссия спасения на далекой родине станет персональной вендеттой, последним шансом прикончить заклятого врага, который лишил его самого дорогого на свете…-РЕЛИЗ ОТ: V.SERIJ2013-Спасибо серый75 за оцифровку VHS-записи с телеканала REN-TV и v.serij2013 (т.е., мне) за обработку и сведение.-Качество: HDRip
Формат: AVI
Видео кодек: XVID
Аудио кодек: AC3
Видео: XVID, 720x384 (1.85:1), 23.976 fps, ~1851 kbps, 0.268 bit/pixel
Аудио:
  • русская |REN-TV|: AC3, 48 kHz, 2 ch, 192 kbps
  • английская |Оригинал|: AC3, 48 kHz, 2 ch, 192 kbps
-Сэмпл\ Кинопоиск-

Скриншот c названием фильма

Скриншоты

Media Info

General
Complete name                            : E:\Video\SD\The Mechanik (2005) (HDRip).avi
Format                                   : AVI
Format/Info                              : Audio Video Interleave
File size                                : 1.41 GiB
Duration                                 : 1h 30mn
Overall bit rate                         : 2 250 Kbps
Writing application                      : VirtualDubMod 1.5.10.2 (build 2540/release)
Writing library                          : VirtualDubMod build 2540/release
[br]
Video
ID                                       : 0
Format                                   : MPEG-4 Visual
Format profile                           : Advanced Simple@L5
Format settings, BVOP                    : 1
Format settings, QPel                    : No
Format settings, GMC                     : No warppoints
Format settings, Matrix                  : Custom
Codec ID                                 : XVID
Codec ID/Hint                            : XviD
Duration                                 : 1h 30mn
Bit rate                                 : 1 851 Kbps
Width                                    : 720 pixels
Height                                   : 384 pixels
Display aspect ratio                     : 1.85:1
Frame rate                               : 25.000 fps
Color space                              : YUV
Chroma subsampling                       : 4:2:0
Bit depth                                : 8 bits
Scan type                                : Progressive
Compression mode                         : Lossy
Bits/(Pixel*Frame)                       : 0.268
Stream size                              : 1.16 GiB (82%)
Writing library                          : XviD 1.2.1 (UTC 2008-12-04)
[br]
Audio #1
ID                                       : 1
Format                                   : AC-3
Format/Info                              : Audio Coding 3
Mode extension                           : CM (complete main)
Format settings, Endianness              : Big
Codec ID                                 : 2000
Duration                                 : 1h 30mn
Bit rate mode                            : Constant
Bit rate                                 : 192 Kbps
Channel(s)                               : 2 channels
Channel positions                        : Front: L R
Sampling rate                            : 48.0 KHz
Bit depth                                : 16 bits
Compression mode                         : Lossy
Stream size                              : 124 MiB (9%)
Alignment                                : Aligned on interleaves
Interleave, duration                     : 40 ms (1.00 video frame)
Interleave, preload duration             : 512 ms
[br]
Audio #2
ID                                       : 2
Format                                   : AC-3
Format/Info                              : Audio Coding 3
Mode extension                           : CM (complete main)
Format settings, Endianness              : Big
Codec ID                                 : 2000
Duration                                 : 1h 30mn
Bit rate mode                            : Constant
Bit rate                                 : 192 Kbps
Channel(s)                               : 2 channels
Channel positions                        : Front: L R
Sampling rate                            : 48.0 KHz
Bit depth                                : 16 bits
Compression mode                         : Lossy
Stream size                              : 124 MiB (9%)
Alignment                                : Aligned on interleaves
Interleave, duration                     : 40 ms (1.00 video frame)
Interleave, preload duration             : 512 ms
-
[Профиль] [ЛС]
Показать сообщения:    

Текущее время: Сегодня 12:29

Часовой пояс: GMT



Вы не можете начинать темы
Вы не можете отвечать на сообщения
Вы не можете редактировать свои сообщения
Вы не можете удалять свои сообщения
Вы не можете голосовать в опросах
Вы не можете прикреплять файлы к сообщениям
Вы не можете скачивать файлы