Механик / The Mechanic (Майкл Уиннер / Michael Winner) [1972, США, боевик, триллер, BDRemux 1080p] MVO + AVO (Михалев) + Sub Eng + Original Eng

 
Автор Сообщение

Russian Mafia ®

Пол:

Стаж: 1 год 8 месяцев

Сообщений: 4256



Награды: 10 (Подробнее)

Mega Seeder 1 (Количество: 1) За внесенный вклад в развитие сайта (Количество: 1) Top Releaser 5 (Количество: 1)
Торрент-статистика

Создавать темы 28-Мар-2016 19:08

[Цитировать]

Механик / The Mechanic
Год выпуска: 1972
Страна: США
Жанр: боевик, триллер
Продолжительность: 1:39:53
Перевод: Профессиональный (многоголосый, закадровый)
Перевод: Авторский (одноголосый, закадровый) Алексей Михалев
Субтитры: английские
Режиссер: Майкл Уиннер / Michael Winner
В ролях: Чарльз Бронсон, Ян-Майкл Винсент, Кинен Уинн, Джилл Айрленд, Линда Риджвей, Фрэнк ДеКова, Джеймс Дэвидсон, Линдсэй Кросби, Стив Кори, Так Кубота, Patrick O'Moore, Мартин Гордон, Celeste Yarnall, Athena Lorde, Элисон Роуз, Ховард Мортон, Энцо Фьермонте, Джералд Питерс, Стив Винович, Роберт Джаффе, Кевин О’Нил, Ken Wolger, Трини Митчэм, отец Амандо Де Винченцо, Джон Барклай, Луис Фитч, Крис Форбс, Hiroyasu Fujishima, Алан Гиббс, Линда Грант, Хэнк Хэмилтон, Michael Hinn, Эрни Ф. Орсатти, Фрэнк Орсатти, Сара Тафт
Описание: Профессиональный убийца из могущественной организации начинает опекать юного ученика и обучает его всему, что знает и умеет. Когда его студент позднее оборачивает приобретенные знания против учителя, ситуация разрешается самым необычным образом.
Доп. информация:
Качество: BDRemux
Формат: MKV
Видео: MPEG-4 AVC Video 24970 kbps 1080p / 23.976 fps / 16:9 / High Profile 4.1
Аудио: Russian / Dolby Digital Audio / 2.0 / 48 kHz / 192 kbps [mvo]
Аудио: Russian / Dolby Digital Audio / 2.0 / 48 kHz / 192 kbps [Михалев]
Аудио: DTS Audio English 2.0 / 48 kHz / 768 kbps / 16-bit

MI

General
Unique ID : 208415804144355631656013785305088449240 (0x9CCB6C7EB703EF708F4DCE6DE48ADAD8)
Complete name : J:\The.Mechanic.1972.1080p.Bluray.GER.AVC.Remux.mkv
Format : Matroska
File size : 18.2 GiB
Duration : 1h 39mn
Overall bit rate : 26.1 Mbps
Movie name : The.Mechanic.1972.1080p.Bluray.AVC.Remux
Encoded date : UTC 2011-06-23 00:00:59
Writing application : mkvmerge v4.8.0 ('I Got The...') сборка от May 24 2011 03:12:58
Writing library : libebml v1.2.0 + libmatroska v1.1.0
Video
ID : 1
Format : AVC
Format/Info : Advanced Video Codec
Format profile : High@L4.1
Format settings, CABAC : Yes
Format settings, ReFrames : 4 frames
Codec ID : V_MPEG4/ISO/AVC
Duration : 1h 39mn
Bit rate mode : Variable
Bit rate : 24.5 Mbps
Maximum bit rate : 40.0 Mbps
Width : 1 920 pixels
Height : 1 080 pixels
Display aspect ratio : 16:9
Frame rate : 23.976 fps
Color space : YUV
Chroma subsampling : 4:2:0
Bit depth : 8 bits
Scan type : Progressive
Bits/(Pixel*Frame) : 0.492
Stream size : 17.1 GiB (94%)
Title : uralmix
Color primaries : BT.709-5, BT.1361, IEC 61966-2-4, SMPTE RP177
Transfer characteristics : BT.709-5, BT.1361
Matrix coefficients : BT.709-5, BT.1361, IEC 61966-2-4 709, SMPTE RP177
Audio #1
ID : 2
Format : AC-3
Format/Info : Audio Coding 3
Mode extension : CM (complete main)
Codec ID : A_AC3
Duration : 1h 39mn
Bit rate mode : Constant
Bit rate : 192 Kbps
Channel(s) : 2 channels
Channel positions : Front: L R
Sampling rate : 48.0 KHz
Bit depth : 16 bits
Compression mode : Lossy
Stream size : 137 MiB (1%)
Title : многоголосый
Language : Russian
Audio #2
ID : 3
Format : AC-3
Format/Info : Audio Coding 3
Mode extension : CM (complete main)
Codec ID : A_AC3
Duration : 1h 39mn
Bit rate mode : Constant
Bit rate : 192 Kbps
Channel(s) : 2 channels
Channel positions : Front: L R
Sampling rate : 48.0 KHz
Bit depth : 16 bits
Compression mode : Lossy
Stream size : 137 MiB (1%)
Title : авторский - Алексей Михалев
Language : Russian
Audio #3
ID : 4
Format : DTS
Format/Info : Digital Theater Systems
Codec ID : A_DTS
Duration : 1h 39mn
Bit rate mode : Constant
Bit rate : 755 Kbps
Channel(s) : 2 channels
Channel positions : Front: L R
Sampling rate : 48.0 KHz
Bit depth : 16 bits
Compression mode : Lossy
Stream size : 539 MiB (3%)
Language : English
Text
ID : 5
Format : UTF-8
Codec ID : S_TEXT/UTF8
Codec ID/Info : UTF-8 Plain Text
Language : English
Menu
00:00:00.000 : en:00:00:00.000
00:05:57.899 : en:00:05:57.899
00:15:35.935 : en:00:15:35.935
00:23:07.511 : en:00:23:07.511
00:32:15.350 : en:00:32:15.350
00:42:50.485 : en:00:42:50.485
00:49:51.530 : en:00:49:51.530
00:58:10.445 : en:00:58:10.445
01:08:06.916 : en:01:08:06.916
01:17:40.364 : en:01:17:40.364
01:24:11.296 : en:01:24:11.296
01:34:58.359 : en:01:34:58.359
01:39:38.639 : en:01:39:38.639

Скриншоты

[Профиль] [ЛС]
Показать сообщения:    

Текущее время: Сегодня 14:38

Часовой пояс: GMT



Вы не можете начинать темы
Вы не можете отвечать на сообщения
Вы не можете редактировать свои сообщения
Вы не можете удалять свои сообщения
Вы не можете голосовать в опросах
Вы не можете прикреплять файлы к сообщениям
Вы не можете скачивать файлы